• Игры для PS4
  • Игры для PS3
  • Игры для XBOX360
  • Игры для PC
  • Игры для PS2
  • Игры для PSP
  • Для телефонов
  • Музыка
  • Книги / Журналы
  • Обои
  • Опрос
    Удобен ли сайт в использовании?
      0
    • Очень удобен, все понятно1,1,false,300,full
    • Удобен1,2,false,300,full
    • Средне1,3,false,300,full
    • Неудобен, трудно ориентироваться1,4,false,300,full
    • Совсем неудобен1,5,false,300,full
    Статистика
    Всего онлайн -
    Гостей -
    Пользователей -
    Короли трекера
    
    Благодарности () Закрыть
    Быстрее загружает сайты Экономит интернет—трафик Меняет оформление страницы ВК Блокирует всю рекламу на сайтах Загружает торренты как µTorrent клиент Объеденяет все твои чаты из соц. сетей в один Проигрывает твою музыку не заходя во ВКонтакте
    Новый интернет-браузер
    Оrbitum
    Скачать
    и многое другое... Подробности на сайте производителя
    Информация о фильме
    Название: Неделя до...
    Оригинальное название: The Week Of
    Год выхода: 2018
    Жанр:  Комедия
    Режиссер: Роберт Шмигель
    В ролях: Джош Райнер, Адам Сэндлер, Стив Бушеми, Рэйчел Дрэч, Крис Рок, Скотт Коэн, Патриция Белчер, Делани Уилер, Роб Морган

    О фильме :
    Двое взрослых мужчин недавно узнали от своих детей, что те встречаются и желают пожениться, поэтому будущие сваты решают не просто познакомиться друг с другом, но еще и распланировать предстоящее торжество. Ровно за неделю до предстоящего бракосочетания отцы понимают, что у них уже сделан огромный объем работ, и осталось лишь сделать несколько финальных штрихов для будущего мероприятия. Однако в планы мужчин начинают вмешиваться различные непонятные случаи, которые могут разрушить все то, что они так усердно готовили. Но если уж отцы решили сделать праздник для своих детей, то их ничто не остановит.



    Страна: США
    Студия: NetFlix, Happy Madison Productions
    Продолжительность: 01:56:43
    Перевод: Профессиональный (многоголосый, закадровый) | HDRezka Studio

    Файл
    Формат: MKV
    Качество: WEBRip-AVC
    Видео: MPEG-4 AVC, 768x416, ~ 815 Кбит/с
    Аудио: [img]http://i93.fastpic.ru/big/2017/0727/c0/4b72f0369a3393219ed5935e91fc15c0.gif[/img] AAC-HE, 2 ch, ~ 76 Кбит/с
    Субтитры: Нет

    MI
    Общее
    Уникальный идентификатор : 202895276862709292769085839056075011232 (0x98A4357C55F404170AC6A3DD8418B4A0)
    Полное имя : D:MOVIESThe.Week.Of.2018.ExKinoRay.mkv
    Формат : Matroska
    Версия формата : Version 2
    Размер файла : 744 Мбайт
    Продолжительность : 1 ч. 58 м.
    Общий поток : 878 Кбит/сек
    Дата кодирования : UTC 2018-05-17 17:57:49
    Программа кодирования : mkvmerge v23.0.0 ("The Bride Said No") 64-bit
    Библиотека кодирования : libebml v1.3.6 + libmatroska v1.4.9

    Видео
    Идентификатор : 1
    Формат : AVC
    Формат/Информация : Advanced Video Codec
    Профиль формата : High@L4.1
    Параметр CABAC формата : Да
    Параметр RefFrames формата : 10 кадров
    Идентификатор кодека : V_MPEG4/ISO/AVC
    Продолжительность : 1 ч. 56 м.
    Битрейт : 815 Кбит/сек
    Ширина : 768 пикселей
    Высота : 416 пикселей
    Соотношение сторон : 1,85:1
    Режим частоты кадров : Постоянный
    Частота кадров : 23,976 (24000/1001) кадра/сек
    Цветовое пространство : YUV
    Субдискретизация насыщенности : 4:2:0
    Битовая глубина : 8 бит
    Тип развёртки : Прогрессивная
    Бит/(Пиксели*Кадры) : 0.106
    Размер потока : 678 Мбайт (91%)
    Библиотека кодирования : x264 core 155 r2901 7d0ff22
    Настройки программы : cabac=1 / ref=10 / deblock=1:-3:-3 / analyse=0x3:0x133 / me=umh / subme=11 / psy=1 / psy_rd=1.00:0.13 / mixed_ref=1 / me_range=32 / chroma_me=1 / trellis=2 / 8x8dct=1 / cqm=0 / deadzone=21,11 / fast_pskip=0 / chroma_qp_offset=-3 / threads=6 / lookahead_threads=1 / sliced_threads=0 / nr=0 / decimate=0 / interlaced=0 / bluray_compat=0 / constrained_intra=0 / bframes=10 / b_pyramid=2 / b_adapt=2 / b_bias=0 / direct=3 / weightb=1 / open_gop=0 / weightp=2 / keyint=240 / keyint_min=23 / scenecut=40 / intra_refresh=0 / rc_lookahead=40 / rc=2pass / mbtree=1 / bitrate=815 / ratetol=1.0 / qcomp=0.60 / qpmin=0 / qpmax=69 / qpstep=4 / cplxblur=20.0 / qblur=0.5 / vbv_maxrate=50000 / vbv_bufsize=62500 / nal_hrd=none / filler=0 / ip_ratio=1.40 / aq=3:1.00
    Default : Да
    Forced : Нет

    Аудио
    Идентификатор : 2
    Формат : AAC
    Формат/Информация : Advanced Audio Codec
    Профиль формата : HE-AAC / LC
    Идентификатор кодека : A_AAC
    Продолжительность : 1 ч. 58 м.
    Битрейт : 76,0 Кбит/сек
    Каналы : 2 канала
    Расположение каналов : Front: L R
    Частота : 48,0 КГц / 24,0 КГц
    Частота кадров : 23,438 кадра/сек (1024 SPF)
    Метод сжатия : С потерями
    Задержка видео : 31 мс.
    Размер потока : 64,4 Мбайт (9%)
    Язык : Russian
    Default : Да
    Forced : Нет
    Свернуть


    Скриншоты
    [screen]http://i104.fastpic.ru/big/2018/0517/47/0e874e1718e9bec2371d3a103d024247.jpg[/screen][screen]http://i104.fastpic.ru/big/2018/0517/5b/032d9530a0afeda4eebaa8a312282f5b.jpg[/screen][screen]http://i104.fastpic.ru/big/2018/0517/2b/4129d3e8fa62af9322528fa72dc7592b.jpg[/screen][screen]http://i105.fastpic.ru/big/2018/0517/55/186095bdb14ed4e4532a4d996f2f8a55.jpg[/screen]

    [screen]http://i105.fastpic.ru/big/2018/0517/75/311e48678f1d3a930f8eb9b17b943075.jpg[/screen][screen]http://i105.fastpic.ru/big/2018/0517/b0/fe0b24529da639f1c598422617edf3b0.jpg[/screen][screen]http://i104.fastpic.ru/big/2018/0517/d2/a8bb0e7d2981e5685895430ad5a699d2.jpg[/screen][screen]http://i104.fastpic.ru/big/2018/0517/61/959843021bd0d829622e906fe7c7c861.jpg[/screen]Свернуть
    Похожие раздачи Искать похожие
    Инструкция по скачиванию
     1  Качаем uTorrent версии 2.0 и выше
     2  После установки, жмем выше под постером на ссылку Скачать [MediaGet] или Скачать .torrent
     3  Открываем скачанный файл через соответствующий клиент: MediaGet или uTorrent
     4  Ждем пока подключатся участники
     5  Качаем
    Комментарии о  Неделя до... / The Week Of | WEBRip-AVC 
    Ближайшее в кино
    Вверх