• Игры для PS4
  • Игры для PS3
  • Игры для XBOX360
  • Игры для PC
  • Игры для PS2
  • Игры для PSP
  • Для телефонов
  • Музыка
  • Книги / Журналы
  • Обои
  • Опрос
    Откуда Вы о нас узнали?
      0
    • От знакомых2,1,false,300,full
    • Из социальных сетей2,2,false,300,full
    • Из поисковых систем2,3,false,300,full
    • Другое2,4,false,300,full
    Статистика
    Всего онлайн -
    Гостей -
    Пользователей -
    Короли трекера
    
    Благодарности () Закрыть
    Быстрее загружает сайты Экономит интернет—трафик Меняет оформление страницы ВК Блокирует всю рекламу на сайтах Загружает торренты как µTorrent клиент Объеденяет все твои чаты из соц. сетей в один Проигрывает твою музыку не заходя во ВКонтакте
    Новый интернет-браузер
    Оrbitum
    Скачать
    и многое другое... Подробности на сайте производителя
    Информация о фильме
    Название: Форма воды
    Оригинальное название: The Shape of Water
    Год выхода: 2017
    Жанр: Фэнтези, драма, приключения
    Режиссер: Гильермо Дель Торо
    В ролях: Салли Хокинс, Майкл Шеннон, Ричард Дженкинс, Октавия Спенсер, Майкл Стулбарг, Даг Джонс, Дэвид Хьюлетт, Ник Сирси, Стюарт Арнотт, Найджел Беннетт



    О фильме:
    Действие разворачивается в 1963 году. Главная героиня — немая уборщица в научной лаборатории. В стенах секретного учреждения идёт работа по изучению отловленного человека-амфибии. Женщина влюбляется в мутанта и помогает ему бежать…

    Страна: Канада, США
    Студия: Fox Searchlight Pictures
    Продолжительность: 02:03:19
    Перевод: Дублированный | Лицензия

    Качество: BDRemux 1080p
    Видео: MPEG-4 AVC, 1920x1080, 27.4 Mbit/s, 23.976 fps
    Звук:
    Аудио #01: 48 kHz, DTS, 5.1, 768 Kbps | Дублированный | RUS |[img]http://lostpix.com/img/2016-04/26/ecarul7mj2gcrjkf30af8u4tk.gif[/img]
    Аудио #02: 48 kHz, AC3, 5.1, 448 Kbps | Дублированный | RUS |[img]http://lostpix.com/img/2016-04/26/ecarul7mj2gcrjkf30af8u4tk.gif[/img]
    Аудио #03: 48 kHz, AC3, 5.1, 448 Kbps | Дублированный | UKR |[img]http://lostpix.com/img/2018-03/05/qgxa0cbvre3myaxlzw8pevmq3.gif[/img]
    Аудио #04: 48 kHz, DTS-HD MA, 5.1, 3840 Kbps | Оригинал |  ENG |[img]http://lostpix.com/img/2016-09/30/0icucyo5gq0qmwlibabcgmhiw.gif[/img]
    Субтитры: Русские (forced, full), украинские (forced, full), английские

    [img]http://lostpix.com/img/2018-03/06/jn4p2ea01fk6amxitzfz5ocuq.png[/img][img]http://lostpix.com/img/2018-03/06/wdgv5q9x7127zsbancmbk71pv.png[/img][img]http://lostpix.com/img/2018-03/06/z3nmky917oel3l801mrufc6xr.png[/img][img]http://lostpix.com/img/2018-03/06/htmhjfvpjugf9kr2vp2l2d4lj.png[/img][img]http://lostpix.com/img/2018-03/06/v5xfkjioq4i8374sy1ih3iu5v.png[/img]

    MI
    General
    Unique ID                   : 163184365706906489147374795335324606179 (0x7AC42A67310431524B3338CF618B1EE3)
    Complete name               : E:VideoThe.Shape.of.Water.2017.Lic.BDREMUX.1080p.ExKinoRay.mkv
    Format                      : Matroska
    Format version              : Version 4 / Version 2
    File size                   : 28.3 GiB
    Duration                    : 2 h 3 min
    Overall bit rate mode       : Variable
    Overall bit rate            : 32.9 Mb/s
    Movie name                  : The Shape of Water 2017 from ExKinoRay
    Encoded date                : UTC 2018-05-17 20:35:53
    Writing application         : mkvmerge v22.0.0 ("At The End Of The World") 64-bit
    Writing library             : libebml v1.3.5 + libmatroska v1.4.8

    Video
    ID                          : 1
    Format                      : AVC
    Format/Info                 : Advanced Video Codec
    Format profile              : High@L4.1
    Format settings             : CABAC / 4 Ref Frames
    Format settings, CABAC      : Yes
    Format settings, ReFrames   : 4 frames
    Codec ID                    : V_MPEG4/ISO/AVC
    Duration                    : 2 h 3 min
    Bit rate mode               : Variable
    Bit rate                    : 27.4 Mb/s
    Maximum bit rate            : 34.2 Mb/s
    Width                       : 1 920 pixels
    Height                      : 1 080 pixels
    Display aspect ratio        : 16:9
    Frame rate mode             : Constant
    Frame rate                  : 23.976 (24000/1001) FPS
    Color space                 : YUV
    Chroma subsampling          : 4:2:0
    Bit depth                   : 8 bits
    Scan type                   : Progressive
    Bits/(Pixel*Frame)          : 0.551
    Stream size                 : 23.6 GiB (83%)
    Language                    : English
    Default                     : Yes
    Forced                      : No

    Audio #1
    ID                          : 2
    Format                      : DTS
    Format/Info                 : Digital Theater Systems
    Codec ID                    : A_DTS
    Duration                    : 2 h 3 min
    Bit rate mode               : Constant
    Bit rate                    : 768 kb/s
    Channel(s)                  : 6 channels
    Channel positions           : Front: L C R, Side: L R, LFE
    Sampling rate               : 48.0 kHz
    Frame rate                  : 93.750 FPS (512 SPF)
    Bit depth                   : 24 bits
    Compression mode            : Lossy
    Stream size                 : 677 MiB (2%)
    Title                       : Dub [License]
    Language                    : Russian
    Default                     : Yes
    Forced                      : Yes

    Audio #2
    ID                          : 3
    Format                      : AC-3
    Format/Info                 : Audio Coding 3
    Codec ID                    : A_AC3
    Duration                    : 2 h 3 min
    Bit rate mode               : Constant
    Bit rate                    : 448 kb/s
    Channel(s)                  : 6 channels
    Channel positions           : Front: L C R, Side: L R, LFE
    Sampling rate               : 48.0 kHz
    Frame rate                  : 31.250 FPS (1536 SPF)
    Bit depth                   : 16 bits
    Compression mode            : Lossy
    Stream size                 : 395 MiB (1%)
    Title                       : Dub [License]
    Language                    : Russian
    Service kind                : Complete Main
    Default                     : No
    Forced                      : No

    Audio #3
    ID                          : 4
    Format                      : AC-3
    Format/Info                 : Audio Coding 3
    Codec ID                    : A_AC3
    Duration                    : 2 h 3 min
    Bit rate mode               : Constant
    Bit rate                    : 448 kb/s
    Channel(s)                  : 6 channels
    Channel positions           : Front: L C R, Side: L R, LFE
    Sampling rate               : 48.0 kHz
    Frame rate                  : 31.250 FPS (1536 SPF)
    Bit depth                   : 16 bits
    Compression mode            : Lossy
    Stream size                 : 395 MiB (1%)
    Title                       : Dub [License]
    Language                    : Ukrainian
    Service kind                : Complete Main
    Default                     : No
    Forced                      : No

    Audio #4
    ID                          : 5
    Format                      : DTS
    Format/Info                 : Digital Theater Systems
    Format profile              : MA / Core
    Codec ID                    : A_DTS
    Duration                    : 2 h 3 min
    Bit rate mode               : Variable / Constant
    Bit rate                    : 3 840 kb/s / 1 509 kb/s
    Channel(s)                  : 6 channels
    Channel positions           : Front: L C R, Side: L R, LFE
    Sampling rate               : 48.0 kHz
    Frame rate                  : 93.750 FPS (512 SPF)
    Bit depth                   : 24 bits
    Compression mode            : Lossless / Lossy
    Stream size                 : 3.30 GiB (12%)
    Title                       : Original
    Language                    : English
    Default                     : No
    Forced                      : No

    Text #1
    ID                          : 6
    Format                      : UTF-8
    Codec ID                    : S_TEXT/UTF8
    Codec ID/Info               : UTF-8 Plain Text
    Duration                    : 1 h 58 min
    Bit rate                    : 1 b/s
    Count of elements           : 61
    Stream size                 : 1.38 KiB (0%)
    Title                       : forced
    Language                    : Russian
    Default                     : Yes
    Forced                      : Yes

    Text #2
    ID                          : 7
    Format                      : UTF-8
    Codec ID                    : S_TEXT/UTF8
    Codec ID/Info               : UTF-8 Plain Text
    Duration                    : 2 h 1 min
    Bit rate                    : 69 b/s
    Count of elements           : 1264
    Stream size                 : 61.8 KiB (0%)
    Title                       : full
    Language                    : Russian
    Default                     : No
    Forced                      : No

    Text #3
    ID                          : 8
    Format                      : UTF-8
    Codec ID                    : S_TEXT/UTF8
    Codec ID/Info               : UTF-8 Plain Text
    Duration                    : 1 h 47 min
    Bit rate                    : 5 b/s
    Count of elements           : 167
    Stream size                 : 4.49 KiB (0%)
    Title                       : forced
    Language                    : Ukrainian
    Default                     : No
    Forced                      : No

    Text #4
    ID                          : 9
    Format                      : UTF-8
    Codec ID                    : S_TEXT/UTF8
    Codec ID/Info               : UTF-8 Plain Text
    Duration                    : 2 h 1 min
    Bit rate                    : 71 b/s
    Count of elements           : 1398
    Stream size                 : 64.1 KiB (0%)
    Title                       : full
    Language                    : Ukrainian
    Default                     : No
    Forced                      : No

    Text #5
    ID                          : 10
    Format                      : UTF-8
    Codec ID                    : S_TEXT/UTF8
    Codec ID/Info               : UTF-8 Plain Text
    Duration                    : 1 h 57 min
    Bit rate                    : 67 b/s
    Count of elements           : 1016
    Stream size                 : 58.2 KiB (0%)
    Title                       : Full v.2
    Language                    : Russian
    Default                     : No
    Forced                      : No

    Text #6
    ID                          : 11
    Format                      : UTF-8
    Codec ID                    : S_TEXT/UTF8
    Codec ID/Info               : UTF-8 Plain Text
    Duration                    : 1 h 47 min
    Bit rate                    : 3 b/s
    Count of elements           : 169
    Stream size                 : 2.51 KiB (0%)
    Title                       : Forced
    Language                    : English
    Default                     : No
    Forced                      : No

    Text #7
    ID                          : 12
    Format                      : UTF-8
    Codec ID                    : S_TEXT/UTF8
    Codec ID/Info               : UTF-8 Plain Text
    Duration                    : 1 h 56 min
    Bit rate                    : 43 b/s
    Count of elements           : 1307
    Stream size                 : 36.8 KiB (0%)
    Title                       : Full
    Language                    : English
    Default                     : No
    Forced                      : No

    Text #8
    ID                          : 13
    Format                      : UTF-8
    Codec ID                    : S_TEXT/UTF8
    Codec ID/Info               : UTF-8 Plain Text
    Duration                    : 2 h 2 min
    Bit rate                    : 56 b/s
    Count of elements           : 1925
    Stream size                 : 51.3 KiB (0%)
    Title                       : SDH
    Language                    : English
    Default                     : No
    Forced                      : No

    Menu
    00:00:00.000                : en:00:00:00.000
    00:06:24.467                : en:00:06:24.467
    00:12:54.774                : en:00:12:54.774
    00:18:32.987                : en:00:18:32.987
    00:23:45.591                : en:00:23:45.591
    00:29:39.653                : en:00:29:39.653
    00:35:29.836                : en:00:35:29.836
    00:39:30.535                : en:00:39:30.535
    00:42:42.435                : en:00:42:42.435
    00:48:34.036                : en:00:48:34.036
    00:52:26.935                : en:00:52:26.935
    00:57:30.197                : en:00:57:30.197
    01:01:52.542                : en:01:01:52.542
    01:07:35.551                : en:01:07:35.551
    01:12:13.496                : en:01:12:13.496
    01:17:50.791                : en:01:17:50.791
    01:21:17.122                : en:01:21:17.122
    01:26:05.911                : en:01:26:05.911
    01:32:48.480                : en:01:32:48.480
    01:37:18.750                : en:01:37:18.750
    01:43:24.115                : en:01:43:24.115
    01:46:06.610                : en:01:46:06.610
    01:50:31.667                : en:01:50:31.667
    01:58:34.858                : en:01:58:34.858Свернуть


    Подпишись на меня, кликни по картинке > : [img]http://i069.radikal.ru/1712/fb/cc798e05d06e.gif[/img]

    [img]http://lostpix.com/img/2017-03/22/pa3kns75lpl0e564ik1il8ow9.gif[/img]
    Похожие раздачи Искать похожие
    Инструкция по скачиванию
     1  Качаем uTorrent версии 2.0 и выше
     2  После установки, жмем выше под постером на ссылку Скачать [MediaGet] или Скачать .torrent
     3  Открываем скачанный файл через соответствующий клиент: MediaGet или uTorrent
     4  Ждем пока подключатся участники
     5  Качаем
    Комментарии о  Форма воды / The Shape of Water | BDRemux 1080p 
    Ближайшее в кино
    Вверх