• Игры для PS4
  • Игры для PS3
  • Игры для XBOX360
  • Игры для PC
  • Игры для PS2
  • Игры для PSP
  • Для телефонов
  • Музыка
  • Книги / Журналы
  • Обои
  • Опрос
    Удобен ли сайт в использовании?
      0
    • Очень удобен, все понятно1,1,false,300,full
    • Удобен1,2,false,300,full
    • Средне1,3,false,300,full
    • Неудобен, трудно ориентироваться1,4,false,300,full
    • Совсем неудобен1,5,false,300,full
    Статистика
    Всего онлайн -
    Гостей -
    Пользователей -
    Короли трекера
    Благодарности () Закрыть
    Название: Ордер на смерть
    Оригинальное название: Death Warrant
    Год выпуска: 1990
    Жанр:  Боевик, драма, криминал, детектив
    Выпущено: Канада, США, Pathe Pictures International
    Режиссер: Деран Сарафян
    В ролях: Жан-Клод Ван Дамм, Роберт Гийом, Синтия Гибб, Джордж Дикерсон, Арт ЛаФлёр, Патрик Килпатрик, Джошуа Джон Миллер, Хэнк Стоун, Конрад Данн, Джек Бэннон, Абдул Салаам Эль Раззас, Армин Шимерман, Джон Лэнц, Ганс Хоус, Гарри Уотерс мл., Дороти Деллс, Пауло Тока, Карлис Бурк, Камель Крифа, Аль Леонг, Дэвид Эрскин, Гэри Сервантес, С.Э. Граймс, Ник Гамбэлла, Роберт Уинли, Дэнни Уизелис, Рик Аллен, Джордж Мэк, Джеймс Харди, Джон Де Белло, Джерри Блэк, Марк ДиСалле, Ричард Л. Дюран, Томас Розалес мл., Ларри Хэнкин, Ли Пэйн, Джек Рубио

    О фильме: Ван Дамм в роли офицера Луиса Берка, «нечистого на руку» полицейского детектива, отправляется под видом осужденного в тюрьму «Харрисон», чтобы раскрыть серию убийств заключенных. В стенах тюрьмы он сталкивается с жестокостью сокамерников, с коррумпированными охранниками, со смертью и предательством всех мастей.Когда Берк узнает шокирующую тайну тюрьмы, он должен совершить дерзкий побег — его последний шанс вырваться из лап сотен осужденных головорезов, возглавляемых его кровным врагом.



    Качество: BDRip (720p)
    Видео: MPEG-4 AVC, 10000 Кбит/с, 1280x694
    Аудио 1: 48 kHz, AC3 Dolby Digital, 2/0 (L,R) ch, ~224 kbps | Хлопушка
    Аудио 2: 48 kHz, AC3 Dolby Digital, 2/0 (L,R) ch, ~192 kbps | Paramount Channel
    Аудио 3: 48 kHz, AC3 Dolby Digital, 2/0 (L,R) ch, ~192 kbps | СТС
    Аудио 4: 48 kHz, AC3 Dolby Digital, 2/0 (L,R) ch, ~224 kbps | НТВ
    Аудио 5: 48 kHz, AC3 Dolby Digital, 2/0 (L,R) ch, ~192 kbps | Володарский
    Аудио 6: DTS / 2.0 / 48 kHz / 1509 kbps / 24-bit | Гаврилов
    Аудио 7: 48 kHz, AC3 Dolby Digital, 2/0 (L,R) ch, ~224 kbps | МП "Мега"
    Аудио 8: 48 kHz, AC3 Dolby Digital, 2/0 (L,R) ch, ~224 kbps | Яроцкий
    Аудио 9: DTS / 2.0 / 48 kHz / 1509 kbps / 24-bit | Eng
    Формат субтитров: softsub (SRT)
    Размер: 9.01 ГБ
    Продолжительность: 01:29:03
    Перевод: Дублированный, профессиональный многоголосый, профессиональный двухголосый, профессиональный одноголосый, авторский
    Субтитры: Английские, русские

    log x264

    x264 info: frame I:748 Avg QP:17.81 size:128142
    x264 info: frame P:24748 Avg QP:19.97 size: 67880
    x264 info: frame B:102616 Avg QP:20.98 size: 47758
    x264 info: consecutive B-frames: 1.2% 1.4% 7.5% 9.1% 11.5% 56.3% 4.4% 1.6% 1.8% 3.0% 2.1%
    Свернуть


    MediaInfo

    General
    Unique ID                           : 171234263502375539227773536498340428295 (0x80D28501C8098C70BDC992437BED7A07)
    Format                              : Matroska
    Format version                      : Version 2
    File size                           : 9.01 GiB
    Duration                            : 1h 29mn
    Overall bit rate                    : 14.5 Mbps
    Movie name                          : Death.warrant.1990. -=Атлас31=-
    Encoded date                        : UTC 2018-06-05 06:45:49
    Writing application                 : mkvmerge v7.8.0 ("River Man") 32bit built on Apr  3 2015 12:11:22
    Writing library                     : libebml v1.3.1 + libmatroska v1.4.2

    Video
    ID                                  : 1
    Format                              : AVC
    Format/Info                         : Advanced Video Codec
    Format profile                      : High@L4.1
    Format settings, CABAC              : Yes
    Format settings, ReFrames           : 9 frames
    Codec ID                            : V_MPEG4/ISO/AVC
    Duration                            : 1h 29mn
    Bit rate                            : 10 000 Kbps
    Width                               : 1 280 pixels
    Height                              : 694 pixels
    Display aspect ratio                : 1.85:1
    Frame rate mode                     : Constant
    Frame rate                          : 23.976 fps
    Color space                         : YUV
    Chroma subsampling                  : 4:2:0
    Bit depth                           : 8 bits
    Scan type                           : Progressive
    Bits/(Pixel*Frame)                  : 0.470
    Stream size                         : 6.04 GiB (67%)
    Title                               : -=Атлас31=-
    Writing library                     : x264 core 155 r2901M 7d0ff22
    Encoding settings                   : cabac=1 / ref=9 / deblock=1:-3:-3 / analyse=0x3:0x133 / me=umh / subme=11 / psy=1 / psy_rd=1.00:0.15 / mixed_ref=1 / me_range=48 / chroma_me=1 / trellis=2 / 8x8dct=1 / cqm=0 / deadzone=21,11 / fast_pskip=1 / chroma_qp_offset=-3 / threads=3 / lookahead_threads=1 / sliced_threads=0 / nr=0 / decimate=1 / interlaced=0 / bluray_compat=0 / constrained_intra=0 / bframes=10 / b_pyramid=2 / b_adapt=2 / b_bias=0 / direct=3 / weightb=1 / open_gop=0 / weightp=2 / keyint=240 / keyint_min=24 / scenecut=40 / intra_refresh=0 / rc_lookahead=60 / rc=2pass / mbtree=1 / bitrate=10000 / ratetol=1.0 / qcomp=0.60 / qpmin=0 / qpmax=69 / qpstep=4 / cplxblur=20.0 / qblur=0.5 / ip_ratio=1.40 / aq=1:1.00
    Language                            : English
    Default                             : Yes
    Forced                              : No

    Audio #1
    ID                                  : 2
    Format                              : AC-3
    Format/Info                         : Audio Coding 3
    Mode extension                      : CM (complete main)
    Format settings, Endianness         : Big
    Codec ID                            : A_AC3
    Duration                            : 1h 29mn
    Bit rate mode                       : Constant
    Bit rate                            : 224 Kbps
    Channel(s)                          : 2 channels
    Channel positions                   : Front: L R
    Sampling rate                       : 48.0 KHz
    Bit depth                           : 16 bits
    Compression mode                    : Lossy
    Stream size                         : 143 MiB (2%)
    Title                               : Dub (Хлопушкак)
    Language                            : Russian
    Default                             : Yes
    Forced                              : No

    Audio #2
    ID                                  : 3
    Format                              : AC-3
    Format/Info                         : Audio Coding 3
    Mode extension                      : CM (complete main)
    Format settings, Endianness         : Big
    Codec ID                            : A_AC3
    Duration                            : 1h 29mn
    Bit rate mode                       : Constant
    Bit rate                            : 192 Kbps
    Channel(s)                          : 2 channels
    Channel positions                   : Front: L R
    Sampling rate                       : 48.0 KHz
    Bit depth                           : 16 bits
    Compression mode                    : Lossy
    Stream size                         : 122 MiB (1%)
    Title                               : MVO (Paramount Channel)
    Language                            : Russian
    Default                             : No
    Forced                              : No

    Audio #3
    ID                                  : 4
    Format                              : AC-3
    Format/Info                         : Audio Coding 3
    Mode extension                      : CM (complete main)
    Format settings, Endianness         : Big
    Codec ID                            : A_AC3
    Duration                            : 1h 29mn
    Bit rate mode                       : Constant
    Bit rate                            : 192 Kbps
    Channel(s)                          : 2 channels
    Channel positions                   : Front: L R
    Sampling rate                       : 48.0 KHz
    Bit depth                           : 16 bits
    Compression mode                    : Lossy
    Stream size                         : 122 MiB (1%)
    Title                               : MVO (CTC)
    Language                            : Russian
    Default                             : No
    Forced                              : No

    Audio #4
    ID                                  : 5
    Format                              : AC-3
    Format/Info                         : Audio Coding 3
    Format profile                      : Dolby Digital
    Mode extension                      : CM (complete main)
    Format settings, Endianness         : Big
    Codec ID                            : A_AC3
    Duration                            : 1h 29mn
    Bit rate mode                       : Constant
    Bit rate                            : 224 Kbps
    Channel(s)                          : 2 channels
    Channel positions                   : Front: L R
    Sampling rate                       : 48.0 KHz
    Bit depth                           : 16 bits
    Compression mode                    : Lossy
    Stream size                         : 143 MiB (2%)
    Title                               : DVO (НТВ)
    Language                            : Russian
    Default                             : No
    Forced                              : No

    Audio #5
    ID                                  : 6
    Format                              : AC-3
    Format/Info                         : Audio Coding 3
    Mode extension                      : CM (complete main)
    Format settings, Endianness         : Big
    Codec ID                            : A_AC3
    Duration                            : 1h 29mn
    Bit rate mode                       : Constant
    Bit rate                            : 192 Kbps
    Channel(s)                          : 2 channels
    Channel positions                   : Front: L R
    Sampling rate                       : 48.0 KHz
    Bit depth                           : 16 bits
    Compression mode                    : Lossy
    Stream size                         : 122 MiB (1%)
    Title                               : AVO (Володарский)
    Language                            : Russian
    Default                             : No
    Forced                              : No

    Audio #6
    ID                                  : 7
    Format                              : DTS
    Format/Info                         : Digital Theater Systems
    Mode                                : 16
    Format settings, Endianness         : Big
    Codec ID                            : A_DTS
    Duration                            : 1h 29mn
    Bit rate mode                       : Constant
    Bit rate                            : 1 509 Kbps
    Channel(s)                          : 2 channels
    Channel positions                   : Front: L R
    Sampling rate                       : 48.0 KHz
    Bit depth                           : 24 bits
    Compression mode                    : Lossy
    Stream size                         : 961 MiB (10%)
    Title                               : AVO (Гаврилов)
    Language                            : Russian
    Default                             : No
    Forced                              : No

    Audio #7
    ID                                  : 8
    Format                              : AC-3
    Format/Info                         : Audio Coding 3
    Mode extension                      : CM (complete main)
    Format settings, Endianness         : Big
    Codec ID                            : A_AC3
    Duration                            : 1h 29mn
    Bit rate mode                       : Constant
    Bit rate                            : 224 Kbps
    Channel(s)                          : 2 channels
    Channel positions                   : Front: L R
    Sampling rate                       : 48.0 KHz
    Bit depth                           : 16 bits
    Compression mode                    : Lossy
    Stream size                         : 143 MiB (2%)
    Title                               : VO (МП "Мега")
    Language                            : Russian
    Default                             : No
    Forced                              : No

    Audio #8
    ID                                  : 9
    Format                              : AC-3
    Format/Info                         : Audio Coding 3
    Mode extension                      : CM (complete main)
    Format settings, Endianness         : Big
    Codec ID                            : A_AC3
    Duration                            : 1h 29mn
    Bit rate mode                       : Constant
    Bit rate                            : 224 Kbps
    Channel(s)                          : 2 channels
    Channel positions                   : Front: L R
    Sampling rate                       : 48.0 KHz
    Bit depth                           : 16 bits
    Compression mode                    : Lossy
    Stream size                         : 143 MiB (2%)
    Title                               : VO (Яроцкий)
    Language                            : Russian
    Default                             : No
    Forced                              : No

    Audio #9
    ID                                  : 10
    Format                              : DTS
    Format/Info                         : Digital Theater Systems
    Mode                                : 16
    Format settings, Endianness         : Big
    Codec ID                            : A_DTS
    Duration                            : 1h 29mn
    Bit rate mode                       : Constant
    Bit rate                            : 1 509 Kbps
    Channel(s)                          : 2 channels
    Channel positions                   : Front: L R
    Sampling rate                       : 48.0 KHz
    Bit depth                           : 24 bits
    Compression mode                    : Lossy
    Stream size                         : 961 MiB (10%)
    Language                            : English
    Default                             : No
    Forced                              : No

    Text #1
    ID                                  : 11
    Format                              : UTF-8
    Codec ID                            : S_TEXT/UTF8
    Codec ID/Info                       : UTF-8 Plain Text
    Language                            : Russian
    Default                             : No
    Forced                              : No

    Text #2
    ID                                  : 12
    Format                              : UTF-8
    Codec ID                            : S_TEXT/UTF8
    Codec ID/Info                       : UTF-8 Plain Text
    Language                            : English
    Default                             : No
    Forced                              : No

    Menu
    00:00:00.000                        : :Chapter 01
    00:05:19.986                        : :Chapter 02
    00:09:28.401                        : :Chapter 03
    00:15:58.499                        : :Chapter 04
    00:22:16.835                        : :Chapter 05
    00:25:21.269                        : :Chapter 06
    00:33:30.008                        : :Chapter 07
    00:36:32.231                        : :Chapter 08
    00:42:44.478                        : :Chapter 09
    00:46:57.397                        : :Chapter 10
    00:51:52.067                        : :Chapter 11
    00:55:57.854                        : :Chapter 12
    01:02:11.185                        : :Chapter 13
    01:08:19.929                        : :Chapter 14
    01:14:06.817                        : :Chapter 15
    01:24:30.982                        : :Chapter 16
    01:29:03.296                        : :Chapter 17
    Свернуть


    Инструкция по скачиванию
     1  Качаем uTorrent версии 2.0 и выше
     2  После установки, жмем выше под постером на ссылку Скачать [MediaGet] или Скачать .torrent
     3  Открываем скачанный файл через соответствующий клиент: MediaGet или uTorrent
     4  Ждем пока подключатся участники
     5  Качаем
    Комментарии о  Ордер на смерть / Death Warrant | BDRip 720p 
    Ближайшее в кино
    Вверх