• Игры для PS4
  • Игры для PS3
  • Игры для XBOX360
  • Игры для PC
  • Игры для PS2
  • Игры для PSP
  • Для телефонов
  • Музыка
  • Книги / Журналы
  • Обои
  • Опрос
    Откуда Вы о нас узнали?
      0
    • От знакомых2,1,false,300,full
    • Из социальных сетей2,2,false,300,full
    • Из поисковых систем2,3,false,300,full
    • Другое2,4,false,300,full
    Статистика
    Всего онлайн -
    Гостей -
    Пользователей -
    Короли трекера
    
    Благодарности () Закрыть
    Страна: США, Франция
    Жанр:  боевик
    Год выпуска: 1995
    Продолжительность: 01:31:58

    Перевод: Авторский (одноголосый закадровый) Андрей Гаврилов
    Субтитры: нет
    Оригинальная аудиодорожка: английский

    Режиссер: Рик Эйвери / Rick Avery, Уильям Лустиг / William Lustig

    В ролях: Джефф Спикмэн (John Lomax), Джеймс Бролин (Warden Munsey), Майкл Шейнер (Martin Kagan), Алекс Дэтчер (Dr. Alice Barnes), Вольфганг Бодисон (Dan Mason), Элизабет Грэйсен (Liz Pierce), Норм Вудел (Bill Loomis), Джим Варни (Snake), Мишель Надь (Jenny Lomax), Ред Уэст (Judge)

    Описание: Джон Ломакс, эксперт по боевым искусствам, обучающий полицейских, и не подозревает, что пока он спокойно ужинает в обществе тележурналистки Лиз Пирс, сексуальный маньяк Мартин Каган убивает его младшую сестру. Суд, приговорив Кагана к смертной казни, постановляет отсрочить исполнение приговора на неопределенное время. Но Каган не просто психопат, он — серийный убийца. И его помещают в одну камеру с Биллом Лумисом, осужденным на смерть за убийство жены, которую на самом деле убил Каган. Главный психолог тюрьмы доктор Барнс добивается признания Кагана психически невменяемым. Со дня на день его должны перевести в больницу. Когда Лиз сообщает Джону эту новость, он решает свершить правосудие. Вооружившись до зубов и раздобыв план тюрьмы, Джон отправляется туда, чтобы своими руками исполнить смертный приговор Кагану.

    Качество видео: DVDRip
    Формат видео: AVI

    Видео: XviD build 46, 704x544 (1.29:1), 25 fps, 1735 kbps avg, 0.18 bit/pixel
    Аудио 1: AC3 Dolby Digital, 48000Hz 2/0 (L,R) ch (mono), 192.00 kbps avg
    Аудио 2: AC3 Dolby Digital, 48000Hz 2/0 (L,R) ch, 192.00 kbps avg
    MediaInfo

    Эксперт - The Expert [ale_x2008].avi
    Format                      : AVI
    Format/Info                 : Audio Video Interleave
    File size                   : 1.37 GiB
    Duration                    : 1 h 31 min
    Overall bit rate            : 2 134 kb/s
    Movie name                  : Ekspert.1995.XviD.DVDRip.NovaLan
    Director                    : Sergei7721
    Writing application         : VirtualDubMod 1.5.10.2 (build 2540/release)
    Copyright                   : ale_x2008 | Edich2

    Video
    ID                          : 0
    Format                      : MPEG-4 Visual
    Format profile              : Simple@L3
    Format settings, BVOP       : No
    Format settings, QPel       : No
    Format settings, GMC        : No warppoints
    Format settings, Matrix     : Default (H.263)
    Codec ID                    : XVID
    Codec ID/Hint               : XviD
    Duration                    : 1 h 31 min
    Bit rate                    : 1 736 kb/s
    Width                       : 704 pixels
    Height                      : 544 pixels
    Display aspect ratio        : 1.294
    Frame rate                  : 25.000 FPS
    Color space                 : YUV
    Chroma subsampling          : 4:2:0
    Bit depth                   : 8 bits
    Scan type                   : Progressive
    Compression mode            : Lossy
    Bits/(Pixel*Frame)          : 0.181
    Stream size                 : 1.12 GiB (81%)
    Writing library             : XviD 1.1.2 (UTC 2006-11-01)

    Audio #1
    ID                          : 1
    Format                      : AC-3
    Format/Info                 : Audio Coding 3
    Format settings, Endianness : Big
    Codec ID                    : 2000
    Duration                    : 1 h 31 min
    Bit rate mode               : Constant
    Bit rate                    : 192 kb/s
    Channel(s)                  : 2 channels
    Channel positions           : Front: L R
    Sampling rate               : 48.0 kHz
    Frame rate                  : 31.250 FPS (1536 spf)
    Bit depth                   : 16 bits
    Compression mode            : Lossy
    Stream size                 : 126 MiB (9%)
    Alignment                   : Split accross interleaves
    Interleave, duration        : 40  ms (1.00 video frame)
    Interleave, preload duratio : 500  ms
    Service kind                : Complete Main

    Audio #2
    ID                          : 2
    Format                      : AC-3
    Format/Info                 : Audio Coding 3
    Format settings, Endianness : Big
    Codec ID                    : 2000
    Duration                    : 1 h 31 min
    Bit rate mode               : Constant
    Bit rate                    : 192 kb/s
    Channel(s)                  : 2 channels
    Channel positions           : Front: L R
    Sampling rate               : 48.0 kHz
    Frame rate                  : 31.250 FPS (1536 spf)
    Bit depth                   : 16 bits
    Compression mode            : Lossy
    Stream size                 : 126 MiB (9%)
    Alignment                   : Split accross interleaves
    Interleave, duration        : 40  ms (1.00 video frame)
    Interleave, preload duratio : 500  ms
    Service kind                : Complete Main

    Свернуть


    Скриншоты

    [screen]http://i3.imageban.ru/out/2017/05/21/8070216ffe1c42413367372a7b65c888.png[/screen][screen]http://i4.imageban.ru/out/2017/05/21/9c3f6818a6b2d486cd0ee4c7d7ec8bb5.png[/screen][screen]http://i2.imageban.ru/out/2017/05/21/b846a761a8c6d20e32060c8d9399c20f.png[/screen][screen]http://i6.imageban.ru/out/2017/05/21/2fb67bf4ad75f3f300324ec981fea36b.png[/screen][screen]http://i3.imageban.ru/out/2017/05/21/66e07981095c49f063c861c0c4d54fc0.png[/screen][screen]http://i2.imageban.ru/out/2017/05/21/94156c9198180003ca26b16c6737abfb.png[/screen]

    Свернуть
    Похожие раздачи Искать похожие
    Инструкция по скачиванию
     1  Качаем uTorrent версии 2.0 и выше
     2  После установки, жмем выше под постером на ссылку Скачать [MediaGet] или Скачать .torrent
     3  Открываем скачанный файл через соответствующий клиент: MediaGet или uTorrent
     4  Ждем пока подключатся участники
     5  Качаем
    Комментарии о  Эксперт / The Expert | DVDRip 
    Ближайшее в кино
    Вверх