• Игры для PS4
  • Игры для PS3
  • Игры для XBOX360
  • Игры для PC
  • Игры для PS2
  • Игры для PSP
  • Для телефонов
  • Музыка
  • Книги/Журналы
  • Обои
  •  
    Опрос
    Откуда Вы о нас узнали?
      0
    • От знакомых2,1,false,300,full
    • Из социальных сетей2,2,false,300,full
    • Из поисковых систем2,3,false,300,full
    • Другое2,4,false,300,full
    Статистика
    Загрузка...
    Четверо против банка / Vier gegen die Bank | BDRip-HEVC 1080p
    Статус  Проверено
    В закладки
    Модератор: Max

    Четверо против банка / Vier gegen die Bank | BDRip-HEVC 1080p [Фильмы 2016] скачать торрентом/torrent бесплатно

    Год выхода
    Категории
    Язык
    Закачал
    Max | 13 июня в 09ч 32м 23с
    Раздел
    Отзывов
    0
    Раздают: 15 Качают: 2 Скачали: 22 Размер: 3.93 GB
    Инфо о раздаче | Благодарности |
    0/5
    0
    0 5 0
    Поддержи нас — расскажи друзьям!
    Orbitum
    Новый интернет-браузер Быстрее загружает сайты Экономит интернет—трафик Меняет оформление страницы ВК Блокирует всю рекламу на сайтах Загружает торренты как

    µTorrent

    клиент
    Объеденяет все твои чаты из соц. сетей в один Проигрывает твою музыку не заходя во ВКонтакте
    Скачать и многое другое... Подробности на сайте производителя
    • Жанр: комедия, криминал
    • Год выпуска: 2016
    • Продолжительность: 01:35:58

    • Перевод: Профессиональный (дублированный) iTunes
    • Субтитры: Нет
    • Оригинальная аудиодорожка: Есть

    • Режиссер: Вольфганг Петерсен

    • В ролях: Антье Трауэ, Александра Мария Лара, Тиль Швайгер, Яна Палласке, Маттиас Швайгхёфер, Леопольд Хорнунг, Клаудия Михельсен, Фахри Огюн Ярдим, Михаэль Хербиг, Ян Йозеф Лиферс

    • Описание: Актер, спортсмен и рекламный агент инвестируют все свои сбережения под хорошие проценты, но неожиданно их счета прогорают. Им остается только топить свое горе в ближайшем баре, где они встречают своего инвестиционного агента. Разгневанная троица пытается выместить зло на нем, но тот сам оказался жертвой начальства и лишился работы. Теперь у этой четверки есть выбор: смириться с ударом судьбы или спланировать и осуществить дерзкое ограбление банка, чтобы вернуть свои кровно заработанные.

    [img]http://i65.fastpic.ru/big/2015/0818/d4/744e99baca761b613f1a0bd93423bcd4.gif[/img][img]https://rating.kinopoisk.ru/944040.gif[/img]
    • Релиз: [img]https://a.radikal.ru/a30/1805/9d/3a9abdd6febe.gif[/img]
    • Тип релиза: BDRip 1080p | Vier.gegen.die.Bank.2016.BDRemux.FREEDONOR.RG NNM Club Video
    • Контейнер: MKV

    • Видео: x265, 10Bit, 1918х800 (16:9), 23,976 fps, ~5 026 kb/s, 0.136 bit/pixe
    • Аудио: 48 kHz, AC3 Dolby Digital, 3/2 (L,C,R,l,r) + LFE ch, ~384 kbps - Русский
    • Аудио 2: 48 kHz, AC3 Dolby Digital, 3/2 (L,C,R,l,r) + LFE ch, ~448 kbps - Немецкий
    MediaInfo

    General
    Unique ID                   : 211462814524658092459255399126660398829 (0x9F1641B49585F56A0E517FE66055BEED)
    Complete name               : F:Четверо против банка (2016) BDRip 1080p [HEVC] 10Bit_Druidblack.mkv
    Format                      : Matroska
    Format version              : Version 4 / Version 2
    File size                   : 3.93 GiB
    Duration                    : 1 h 35 min
    Overall bit rate            : 5 860 kb/s
    Encoded date                : UTC 2018-06-12 13:22:09
    Writing application         : mkvmerge v24.0.0 ("Beyond The Pale") 64-bit
    Writing library             : libebml v1.3.6 + libmatroska v1.4.9
    Cover                       : Yes
    Attachments                 : cover.jpg
    Encoding Gui                : Hybrid 2018.06.04.1

    Video
    ID                          : 1
    Format                      : HEVC
    Format/Info                 : High Efficiency Video Coding
    Format profile              : Main 10@L5.1@High
    Codec ID                    : V_MPEGH/ISO/HEVC
    Duration                    : 1 h 35 min
    Bit rate                    : 5 026 kb/s
    Width                       : 1 920 pixels
    Height                      : 800 pixels
    Display aspect ratio        : 2.40:1
    Frame rate mode             : Constant
    Frame rate                  : 23.976 (24000/1001) FPS
    Color space                 : YUV
    Chroma subsampling          : 4:2:0 (Type 0)
    Bit depth                   : 10 bits
    Bits/(Pixel*Frame)          : 0.136
    Stream size                 : 3.37 GiB (86%)
    Writing library             : x265 2.8+12-9cde2c278464:[Windows][GCC 7.3.0][64 bit] 10bit
    Encoding settings           : cpuid=1049071 / frame-threads=4 / wpp / no-pmode / no-pme / no-psnr / no-ssim / log-level=2 / input-csp=1 / input-res=1920x800 / interlace=0 / total-frames=0 / level-idc=51 / high-tier=1 / uhd-bd=0 / ref=5 / no-allow-non-conformance / no-repeat-headers / annexb / no-aud / no-hrd / info / hash=0 / no-temporal-layers / open-gop / min-keyint=23 / keyint=240 / gop-lookahead=0 / bframes=8 / b-adapt=2 / b-pyramid / bframe-bias=0 / rc-lookahead=40 / lookahead-slices=5 / scenecut=40 / radl=0 / no-intra-refresh / ctu=64 / min-cu-size=8 / rect / no-amp / max-tu-size=32 / tu-inter-depth=3 / tu-intra-depth=3 / limit-tu=4 / rdoq-level=2 / dynamic-rd=0.00 / no-ssim-rd / signhide / no-tskip / nr-intra=0 / nr-inter=0 / no-constrained-intra / no-strong-intra-smoothing / max-merge=3 / limit-refs=3 / limit-modes / me=3 / subme=7 / merange=57 / temporal-mvp / weightp / weightb / no-analyze-src-pics / deblock=-3:-3 / no-sao / no-sao-non-deblock / rd=4 / no-early-skip / rskip / no-fast-intra / no-tskip-fast / no-cu-lossless / no-b-intra / no-splitrd-skip / rdpenalty=0 / psy-rd=2.00 / psy-rdoq=1.00 / no-rd-refine / no-lossless / cbqpoffs=0 / crqpoffs=0 / rc=crf / crf=18.0 / qcomp=0.60 / qpstep=4 / stats-write=0 / stats-read=0 / vbv-maxrate=160000 / vbv-bufsize=160000 / vbv-init=0.9 / crf-max=0.0 / crf-min=0.0 / ipratio=1.40 / pbratio=1.30 / aq-mode=1 / aq-strength=1.00 / cutree / zone-count=1 / zones: / start-frame=131611 / end-frame=138060 / qp=35 / no-strict-cbr / qg-size=32 / no-rc-grain / qpmax=69 / qpmin=0 / no-const-vbv / sar=0 / overscan=0 / videoformat=5 / range=0 / colorprim=2 / transfer=2 / colormatrix=1 / chromaloc=1 / chromaloc-top=0 / chromaloc-bottom=0 / display-window=0 / max-cll=0,0 / min-luma=0 / max-luma=1023 / log2-max-poc-lsb=8 / vui-timing-info / vui-hrd-info / slices=1 / no-opt-qp-pps / no-opt-ref-list-length-pps / no-multi-pass-opt-rps / scenecut-bias=0.05 / no-opt-cu-delta-qp / no-aq-motion / no-hdr / no-hdr-opt / no-dhdr10-opt / no-idr-recovery-sei / analysis-reuse-level=5 / scale-factor=0 / refine-intra=0 / refine-inter=0 / refine-mv=0 / no-limit-sao / ctu-info=0 / no-lowpass-dct / refine-mv-type=0 / copy-pic=1 / max-ausize-factor=1.0 / no-dynamic-refine / no-single-sei
    Default                     : Yes
    Forced                      : Yes
    Color range                 : Limited
    Matrix coefficients         : BT.709

    Audio #1
    ID                          : 2
    Format                      : AC-3
    Format/Info                 : Audio Coding 3
    Codec ID                    : A_AC3
    Duration                    : 1 h 35 min
    Bit rate mode               : Constant
    Bit rate                    : 384 kb/s
    Channel(s)                  : 6 channels
    Channel positions           : Front: L C R, Side: L R, LFE
    Sampling rate               : 48.0 kHz
    Frame rate                  : 31.250 FPS (1536 SPF)
    Bit depth                   : 16 bits
    Compression mode            : Lossy
    Stream size                 : 264 MiB (7%)
    Language                    : Russian
    Service kind                : Complete Main
    Default                     : Yes
    Forced                      : No

    Audio #2
    ID                          : 3
    Format                      : AC-3
    Format/Info                 : Audio Coding 3
    Codec ID                    : A_AC3
    Duration                    : 1 h 35 min
    Bit rate mode               : Constant
    Bit rate                    : 448 kb/s
    Channel(s)                  : 6 channels
    Channel positions           : Front: L C R, Side: L R, LFE
    Sampling rate               : 48.0 kHz
    Frame rate                  : 31.250 FPS (1536 SPF)
    Bit depth                   : 16 bits
    Compression mode            : Lossy
    Stream size                 : 308 MiB (8%)
    Language                    : German
    Service kind                : Complete Main
    Default                     : No
    Forced                      : No

    Menu
    00:00:00.000                : en:Chapter 1
    00:09:38.703                : en:Chapter 2
    00:17:04.232                : en:Chapter 3
    00:25:13.721                : en:Chapter 4
    00:34:46.042                : en:Chapter 5
    00:42:16.284                : en:Chapter 6
    00:48:43.963                : en:Chapter 7
    00:56:12.953                : en:Chapter 8
    01:02:25.659                : en:Chapter 9
    01:10:42.280                : en:Chapter 10
    01:20:28.323                : en:Chapter 11
    01:27:11.184                : en:Chapter 12


    Еще похожие »

    Как скачать?
    1. Качаем UTorrent версии 2.0 и выше отсюда
    2. После установки, жмем на ссылку Скачать торрент.
    3. Открываем его через utorrent.
    4. Ждем пока подключатся участники.
    5. Качаем.


    Комментарии о Четверо против банка / Vier gegen die Bank | BDRip-HEVC 1080p
    Добавлять комментарии могут только зарегистрированные пользователи

    Зарегистрироваться или Войти


    Ближайшее в кино
    • Слендермен дата выхода 16 августа 2018Слендермен
      Дата выхода: 16 августа 2018
    • 1045345|Mamma Mia! 2|16 августа 2018|200|300Mamma Mia! 2
      Дата выхода: 16 августа 2018
    • 989641|Аксель|16 августа 2018|200|300Аксель
      Дата выхода: 16 августа 2018
    • 1009137|Опасное задание|16 августа 2018|200|300Опасное задание
      Дата выхода: 16 августа 2018
    • 901932|Горные огни|16 августа 2018|200|300Горные огни
      Дата выхода: 16 августа 2018
    • 957911|Потерянное отражение: Исповедь содержанки|16 августа 2018|200|300Потерянное отражение: Исповедь содержанки
      Дата выхода: 16 августа 2018
    • 1071376|My Generation|16 августа 2018|200|300My Generation
      Дата выхода: 16 августа 2018
    • 1178005|МУЛЬТ в кино. Выпуск №79. Как в сказке!|18 августа 2018|200|300МУЛЬТ в кино. Выпуск №79. Как в сказке!
      Дата выхода: 18 августа 2018
    • 1007425|Днюха!|23 августа 2018|200|300Днюха!
      Дата выхода: 23 августа 2018
    • 921938|22 мили|23 августа 2018|200|30022 мили
      Дата выхода: 23 августа 2018
    • 934956|Альфа|23 августа 2018|200|300Альфа
      Дата выхода: 23 августа 2018
    • 1023331|Отель «Артемида»|23 августа 2018|200|300Отель «Артемида»
      Дата выхода: 23 августа 2018
    • 1008748|Не волнуйся, он далеко не уйдёт|23 августа 2018|200|300Не волнуйся, он далеко не уйдёт
      Дата выхода: 23 августа 2018
    • 1008240|Последний беспредел|23 августа 2018|200|300Последний беспредел
      Дата выхода: 23 августа 2018
    • 986638|Принцесса и дракон|23 августа 2018|200|300Принцесса и дракон
      Дата выхода: 23 августа 2018
    Вверх