• Игры для PS4
  • Игры для PS3
  • Игры для XBOX360
  • Игры для PC
  • Игры для PS2
  • Игры для PSP
  • Для телефонов
  • Музыка
  • Книги/Журналы
  • Обои
  •  
    Опрос
    Удобен ли сайт в использовании?
      0
    • Очень удобен, все понятно1,1,false,300,full
    • Удобен1,2,false,300,full
    • Средне1,3,false,300,full
    • Неудобен, трудно ориентироваться1,4,false,300,full
    • Совсем неудобен1,5,false,300,full
    Статистика
    Загрузка...
    Ангел тьмы / Dark Angel | BDRip-HEVC 1080p
    Статус  Проверено
    В закладки
    Модератор: Max

    Ангел тьмы / Dark Angel | BDRip-HEVC 1080p [Фильмы 1990] скачать торрентом/torrent бесплатно

    Год выхода
    Язык
    Закачал
    Аноним | 13 июня в 09ч 33м 17с
    Раздел
    Отзывов
    0
    Раздают: 5 Качают: 0 Скачали: 8 Размер: 8.8 GB
    Инфо о раздаче | Благодарности |
    0/5
    0
    0 5 0
    Поддержи нас — расскажи друзьям!
    Orbitum
    Новый интернет-браузер Быстрее загружает сайты Экономит интернет—трафик Меняет оформление страницы ВК Блокирует всю рекламу на сайтах Загружает торренты как

    µTorrent

    клиент
    Объеденяет все твои чаты из соц. сетей в один Проигрывает твою музыку не заходя во ВКонтакте
    Скачать и многое другое... Подробности на сайте производителя
    • Жанр: ужасы, фантастика, боевик
    • Год выпуска: 1990
    • Продолжительность: 01:31:56

    • Перевод: Профессиональный многоголосый, профессиональный двухголосый, авторский, любительский одноголосый
    • Субтитры: русские, английские
    • Оригинальная аудиодорожка: Есть

    • Режиссер: Крэйг Р. Бэксли / Craig R. Baxley

    • В ролях:  Дольф Лундгрен, Брайан Бенбен, Бетси Брэнтли, Маттиас Хьюз, Джей Билас, Джим Хейни, Дэвид Экройд, Шерман Ховард, Сэм Андерсон, Марк Ловенталь

    • Описание: Во время операции по задержанию наркоторговцев полицейский Джек Кейн теряет напарника и начинает расследование серии странных смертей - жертвы гибнут от невероятно большой дозы героина, хотя и не являются наркоманами.

    [img]http://i65.fastpic.ru/big/2015/0818/d4/744e99baca761b613f1a0bd93423bcd4.gif[/img][img]https://rating.kinopoisk.ru/24948.gif[/img]
    • Релиз: [img]https://a.radikal.ru/a30/1805/9d/3a9abdd6febe.gif[/img]
    • Тип релиза: BDRip 1080p | DARK_ANGEL_1990_BDREMUX_HDCLUB
    • Контейнер: MKV

    • Видео: x265, 10Bit, 1920х1080 (16:9), 23,976 fps, ~11.0 Mb/s, 0.222 bit/pixe
    • Аудио #1: Русский (AC3, 2 ch, 192 Кбит/с) / Двухголосый закадровый, Видеофильм
    • Аудио #2: Русский (AC3, 2 ch, 192 Кбит/с) / Двухголосый закадровый, НТВ+
    • Аудио #3: Русский (AC3, 2 ch, 192 Кбит/с) / Многоголосый закадровый, Нева-1
    • Аудио #4: Русский (AC3, 2 ch, 192 Кбит/с) / Многоголосый закадровый, Ren-TV
    • Аудио #5: Русский (AC3, 2 ch, 192 Кбит/с) / Одноголосый закадровый, С.Визгунов
    • Аудио #6: Русский (AC3, 2 ch, 192 Кбит/с) / Одноголосый закадровый, В.Горчаков
    • Аудио #7: Русский (AC3, 2 ch, 192 Кбит/с) / Одноголосый закадровый
    • Аудио #8: Русский (AC3, 6 ch, 640 Кбит/с) / Одноголосый закадровый, А.Гаврилов
    • Аудио #10: Английский (AC3, 6 ch, 640 Кбит/с)
    MediaInfo

    General
    Unique ID                   : 213429741790072396179055172063425551175 (0xA09112B4F4229D3222D77E4BEC6D5B47)
    Complete name               : N:Ангел Тьмы (1990) BDRip 1080p [HEVC] 10Bit_Druidblack.mkv
    Format                      : Matroska
    Format version              : Version 4 / Version 2
    File size                   : 8.80 GiB
    Duration                    : 1 h 31 min
    Overall bit rate            : 13.7 Mb/s
    Encoded date                : UTC 2018-06-12 12:34:50
    Writing application         : mkvmerge v24.0.0 ("Beyond The Pale") 64-bit
    Writing library             : libebml v1.3.6 + libmatroska v1.4.9
    Cover                       : Yes
    Attachments                 : cover.jpg
    Encoding Gui                : Hybrid 2018.06.04.1

    Video
    ID                          : 1
    Format                      : HEVC
    Format/Info                 : High Efficiency Video Coding
    Format profile              : Main 10@L5.1@High
    Codec ID                    : V_MPEGH/ISO/HEVC
    Duration                    : 1 h 31 min
    Bit rate                    : 11.0 Mb/s
    Width                       : 1 920 pixels
    Height                      : 1 080 pixels
    Display aspect ratio        : 16:9
    Frame rate mode             : Constant
    Frame rate                  : 23.976 (24000/1001) FPS
    Color space                 : YUV
    Chroma subsampling          : 4:2:0 (Type 0)
    Bit depth                   : 10 bits
    Bits/(Pixel*Frame)          : 0.222
    Stream size                 : 7.09 GiB (81%)
    Writing library             : x265 2.8+12-9cde2c278464:[Windows][GCC 7.3.0][64 bit] 10bit
    Encoding settings           : cpuid=1049071 / frame-threads=4 / wpp / no-pmode / no-pme / no-psnr / no-ssim / log-level=2 / input-csp=1 / input-res=1920x1080 / interlace=0 / total-frames=0 / level-idc=51 / high-tier=1 / uhd-bd=0 / ref=5 / no-allow-non-conformance / no-repeat-headers / annexb / no-aud / no-hrd / info / hash=0 / no-temporal-layers / open-gop / min-keyint=23 / keyint=240 / gop-lookahead=0 / bframes=8 / b-adapt=2 / b-pyramid / bframe-bias=0 / rc-lookahead=40 / lookahead-slices=6 / scenecut=40 / radl=0 / no-intra-refresh / ctu=64 / min-cu-size=8 / rect / no-amp / max-tu-size=32 / tu-inter-depth=3 / tu-intra-depth=3 / limit-tu=4 / rdoq-level=2 / dynamic-rd=0.00 / no-ssim-rd / signhide / no-tskip / nr-intra=0 / nr-inter=0 / no-constrained-intra / no-strong-intra-smoothing / max-merge=3 / limit-refs=3 / limit-modes / me=3 / subme=7 / merange=57 / temporal-mvp / weightp / weightb / no-analyze-src-pics / deblock=-3:-3 / no-sao / no-sao-non-deblock / rd=4 / no-early-skip / rskip / no-fast-intra / no-tskip-fast / no-cu-lossless / no-b-intra / no-splitrd-skip / rdpenalty=0 / psy-rd=2.00 / psy-rdoq=1.00 / no-rd-refine / no-lossless / cbqpoffs=0 / crqpoffs=0 / rc=crf / crf=19.0 / qcomp=0.60 / qpstep=4 / stats-write=0 / stats-read=0 / vbv-maxrate=160000 / vbv-bufsize=160000 / vbv-init=0.9 / crf-max=0.0 / crf-min=0.0 / ipratio=1.40 / pbratio=1.30 / aq-mode=1 / aq-strength=1.00 / cutree / zone-count=1 / zones: / start-frame=127890 / end-frame=132276 / qp=35 / no-strict-cbr / qg-size=32 / no-rc-grain / qpmax=69 / qpmin=0 / no-const-vbv / sar=0 / overscan=0 / videoformat=5 / range=0 / colorprim=2 / transfer=1 / colormatrix=1 / chromaloc=1 / chromaloc-top=0 / chromaloc-bottom=0 / display-window=0 / max-cll=0,0 / min-luma=0 / max-luma=1023 / log2-max-poc-lsb=8 / vui-timing-info / vui-hrd-info / slices=1 / no-opt-qp-pps / no-opt-ref-list-length-pps / no-multi-pass-opt-rps / scenecut-bias=0.05 / no-opt-cu-delta-qp / no-aq-motion / no-hdr / no-hdr-opt / no-dhdr10-opt / no-idr-recovery-sei / analysis-reuse-level=5 / scale-factor=0 / refine-intra=0 / refine-inter=0 / refine-mv=0 / no-limit-sao / ctu-info=0 / no-lowpass-dct / refine-mv-type=0 / copy-pic=1 / max-ausize-factor=1.0 / no-dynamic-refine / no-single-sei
    Default                     : Yes
    Forced                      : Yes
    Color range                 : Limited
    Transfer characteristics    : BT.709
    Matrix coefficients         : BT.709

    Audio #1
    ID                          : 2
    Format                      : AC-3
    Format/Info                 : Audio Coding 3
    Codec ID                    : A_AC3
    Duration                    : 1 h 31 min
    Bit rate mode               : Constant
    Bit rate                    : 192 kb/s
    Channel(s)                  : 2 channels
    Channel positions           : Front: L R
    Sampling rate               : 48.0 kHz
    Frame rate                  : 31.250 FPS (1536 SPF)
    Bit depth                   : 16 bits
    Compression mode            : Lossy
    Stream size                 : 126 MiB (1%)
    Title                       : Двухголосый закадровый, Видеофильм
    Language                    : Russian
    Service kind                : Complete Main
    Default                     : Yes
    Forced                      : No

    Audio #2
    ID                          : 3
    Format                      : AC-3
    Format/Info                 : Audio Coding 3
    Codec ID                    : A_AC3
    Duration                    : 1 h 31 min
    Bit rate mode               : Constant
    Bit rate                    : 192 kb/s
    Channel(s)                  : 2 channels
    Channel positions           : Front: L R
    Sampling rate               : 48.0 kHz
    Frame rate                  : 31.250 FPS (1536 SPF)
    Bit depth                   : 16 bits
    Compression mode            : Lossy
    Stream size                 : 126 MiB (1%)
    Title                       : Двухголосый закадровый, НТВ+
    Language                    : Russian
    Service kind                : Complete Main
    Default                     : No
    Forced                      : No

    Audio #3
    ID                          : 4
    Format                      : AC-3
    Format/Info                 : Audio Coding 3
    Codec ID                    : A_AC3
    Duration                    : 1 h 31 min
    Bit rate mode               : Constant
    Bit rate                    : 192 kb/s
    Channel(s)                  : 2 channels
    Channel positions           : Front: L R
    Sampling rate               : 48.0 kHz
    Frame rate                  : 31.250 FPS (1536 SPF)
    Bit depth                   : 16 bits
    Compression mode            : Lossy
    Stream size                 : 126 MiB (1%)
    Title                       : Многоголосый закадровый, Нева-1
    Language                    : Russian
    Service kind                : Complete Main
    Default                     : No
    Forced                      : No

    Audio #4
    ID                          : 5
    Format                      : AC-3
    Format/Info                 : Audio Coding 3
    Codec ID                    : A_AC3
    Duration                    : 1 h 31 min
    Bit rate mode               : Constant
    Bit rate                    : 192 kb/s
    Channel(s)                  : 2 channels
    Channel positions           : Front: L R
    Sampling rate               : 48.0 kHz
    Frame rate                  : 31.250 FPS (1536 SPF)
    Bit depth                   : 16 bits
    Compression mode            : Lossy
    Stream size                 : 126 MiB (1%)
    Title                       : Многоголосый закадровый, Ren-TV
    Language                    : Russian
    Service kind                : Complete Main
    Default                     : No
    Forced                      : No

    Audio #5
    ID                          : 6
    Format                      : AC-3
    Format/Info                 : Audio Coding 3
    Codec ID                    : A_AC3
    Duration                    : 1 h 31 min
    Bit rate mode               : Constant
    Bit rate                    : 192 kb/s
    Channel(s)                  : 2 channels
    Channel positions           : Front: L R
    Sampling rate               : 48.0 kHz
    Frame rate                  : 31.250 FPS (1536 SPF)
    Bit depth                   : 16 bits
    Compression mode            : Lossy
    Stream size                 : 126 MiB (1%)
    Title                       : Одноголосый закадровый, С.Визгунов
    Language                    : Russian
    Service kind                : Complete Main
    Default                     : No
    Forced                      : No

    Audio #6
    ID                          : 7
    Format                      : AC-3
    Format/Info                 : Audio Coding 3
    Codec ID                    : A_AC3
    Duration                    : 1 h 31 min
    Bit rate mode               : Constant
    Bit rate                    : 192 kb/s
    Channel(s)                  : 2 channels
    Channel positions           : Front: L R
    Sampling rate               : 48.0 kHz
    Frame rate                  : 31.250 FPS (1536 SPF)
    Bit depth                   : 16 bits
    Compression mode            : Lossy
    Stream size                 : 126 MiB (1%)
    Title                       : Одноголосый закадровый, В.Горчаков
    Language                    : Russian
    Service kind                : Complete Main
    Default                     : No
    Forced                      : No

    Audio #7
    ID                          : 8
    Format                      : AC-3
    Format/Info                 : Audio Coding 3
    Codec ID                    : A_AC3
    Duration                    : 1 h 31 min
    Bit rate mode               : Constant
    Bit rate                    : 192 kb/s
    Channel(s)                  : 2 channels
    Channel positions           : Front: L R
    Sampling rate               : 48.0 kHz
    Frame rate                  : 31.250 FPS (1536 SPF)
    Bit depth                   : 16 bits
    Compression mode            : Lossy
    Stream size                 : 126 MiB (1%)
    Title                       : Одноголосый закадровый
    Language                    : Russian
    Service kind                : Complete Main
    Default                     : No
    Forced                      : No

    Audio #8
    ID                          : 9
    Format                      : AC-3
    Format/Info                 : Audio Coding 3
    Codec ID                    : A_AC3
    Duration                    : 1 h 31 min
    Bit rate mode               : Constant
    Bit rate                    : 640 kb/s
    Channel(s)                  : 6 channels
    Channel positions           : Front: L C R, Side: L R, LFE
    Sampling rate               : 48.0 kHz
    Frame rate                  : 31.250 FPS (1536 SPF)
    Bit depth                   : 16 bits
    Compression mode            : Lossy
    Delay relative to video     : 21 ms
    Stream size                 : 421 MiB (5%)
    Title                       : Одноголосый закадровый, А.Гаврилов
    Language                    : Russian
    Service kind                : Complete Main
    Default                     : No
    Forced                      : No

    Audio #9
    ID                          : 10
    Format                      : AC-3
    Format/Info                 : Audio Coding 3
    Codec ID                    : A_AC3
    Duration                    : 1 h 31 min
    Bit rate mode               : Constant
    Bit rate                    : 640 kb/s
    Channel(s)                  : 6 channels
    Channel positions           : Front: L C R, Side: L R, LFE
    Sampling rate               : 48.0 kHz
    Frame rate                  : 31.250 FPS (1536 SPF)
    Bit depth                   : 16 bits
    Compression mode            : Lossy
    Stream size                 : 421 MiB (5%)
    Language                    : English
    Service kind                : Complete Main
    Default                     : No
    Forced                      : No

    Text #1
    ID                          : 11
    Format                      : PGS
    Muxing mode                 : zlib
    Codec ID                    : S_HDMV/PGS
    Codec ID/Info               : Picture based subtitle format used on BDs/HD-DVDs
    Duration                    : 1 h 27 min
    Bit rate                    : 27.9 kb/s
    Count of elements           : 1776
    Stream size                 : 17.4 MiB (0%)
    Language                    : Russian
    Default                     : Yes
    Forced                      : No

    Text #2
    ID                          : 12
    Format                      : PGS
    Muxing mode                 : zlib
    Codec ID                    : S_HDMV/PGS
    Codec ID/Info               : Picture based subtitle format used on BDs/HD-DVDs
    Duration                    : 1 h 27 min
    Bit rate                    : 34.5 kb/s
    Count of elements           : 2434
    Stream size                 : 21.6 MiB (0%)
    Language                    : English
    Default                     : No
    Forced                      : No

    Menu
    00:00:00.000                : en:Chapter 1
    00:07:55.223                : en:Chapter 2
    00:18:17.762                : en:Chapter 3
    00:24:57.162                : en:Chapter 4
    00:31:18.750                : en:Chapter 5
    00:37:22.072                : en:Chapter 6
    00:45:20.884                : en:Chapter 7
    00:51:28.668                : en:Chapter 8
    00:57:35.659                : en:Chapter 9
    01:03:44.320                : en:Chapter 10
    01:09:32.126                : en:Chapter 11
    01:18:56.939                : en:Chapter 12


    Еще похожие »

    Как скачать?
    1. Качаем UTorrent версии 2.0 и выше отсюда
    2. После установки, жмем на ссылку Скачать торрент.
    3. Открываем его через utorrent.
    4. Ждем пока подключатся участники.
    5. Качаем.


    Комментарии о Ангел тьмы / Dark Angel | BDRip-HEVC 1080p
    Добавлять комментарии могут только зарегистрированные пользователи

    Зарегистрироваться или Войти


    Ближайшее в кино
    • Кто украл Banksy дата выхода 25 июня 2018Кто украл Banksy
      Дата выхода: 25 июня 2018
    • 1031219|План побега 2|28 июня 2018|200|300План побега 2
      Дата выхода: 28 июня 2018
    • 938461|Убийца 2. Против всех|28 июня 2018|200|300Убийца 2. Против всех
      Дата выхода: 28 июня 2018
    • 912012|Распрекрасный принц|28 июня 2018|200|300Распрекрасный принц
      Дата выхода: 28 июня 2018
    • 1015040|Во власти стихии|28 июня 2018|200|300Во власти стихии
      Дата выхода: 28 июня 2018
    • 759874|Ты водишь!|28 июня 2018|200|300Ты водишь!
      Дата выхода: 28 июня 2018
    • 1077873|Книжный клуб|28 июня 2018|200|300Книжный клуб
      Дата выхода: 28 июня 2018
    • 1047708|Инсомния|28 июня 2018|200|300Инсомния
      Дата выхода: 28 июня 2018
    • 1026748|Джим Пуговка и машинист Лукас|28 июня 2018|200|300Джим Пуговка и машинист Лукас
      Дата выхода: 28 июня 2018
    • 1038941|Осторожно: Грамп!|28 июня 2018|200|300Осторожно: Грамп!
      Дата выхода: 28 июня 2018
    • 977767|50 весенних дней|28 июня 2018|200|30050 весенних дней
      Дата выхода: 28 июня 2018
    • 1162806|Идеальный муж|4 июля 2018|200|300Идеальный муж
      Дата выхода: 4 июля 2018
    • 935940|Человек-муравей и Оса|5 июля 2018|200|300Человек-муравей и Оса
      Дата выхода: 5 июля 2018
    • 977435|Невидимка|5 июля 2018|200|300Невидимка
      Дата выхода: 5 июля 2018
    • 988157|Париж. Город Zомби|5 июля 2018|200|300Париж. Город Zомби
      Дата выхода: 5 июля 2018
    Вверх