• Игры для PS4
  • Игры для PS3
  • Игры для XBOX360
  • Игры для PC
  • Игры для PS2
  • Игры для PSP
  • Для телефонов
  • Музыка
  • Книги/Журналы
  • Обои
  •  
    Опрос
    Откуда Вы о нас узнали?
      0
    • От знакомых2,1,false,300,full
    • Из социальных сетей2,2,false,300,full
    • Из поисковых систем2,3,false,300,full
    • Другое2,4,false,300,full
    Статистика
    Загрузка...
    Лара Крофт: Расхитительница гробниц 2 - Колыбель жизни / Lara Croft Tomb Raider: The Cradle of Life | BDRip-HEVC 1080p
    Статус  Проверено
    В закладки
    Модератор: Max

    Лара Крофт: Расхитительница гробниц 2 - Колыбель жизни / Lara Croft Tomb Raider: The Cradle of Life | BDRip-HEVC 1080p [Фильмы 2003] скачать торрентом/torrent бесплатно

    Год выхода
    Язык
    Закачал
    Аноним | 13 июня в 09ч 36м 10с
    Раздел
    Отзывов
    0
    Раздают: 11 Качают: 7 Скачали: 275 Размер: 7.28 GB
    Инфо о раздаче | Благодарности |
    0/5
    0
    0 5 0
    Поддержи нас — расскажи друзьям!
    Orbitum
    Новый интернет-браузер Быстрее загружает сайты Экономит интернет—трафик Меняет оформление страницы ВК Блокирует всю рекламу на сайтах Загружает торренты как

    µTorrent

    клиент
    Объеденяет все твои чаты из соц. сетей в один Проигрывает твою музыку не заходя во ВКонтакте
    Скачать и многое другое... Подробности на сайте производителя
    • Жанр: фэнтези, боевик, приключения
    • Год выпуска: 2003
    • Продолжительность: 01:57:19

    • Перевод: Дублированный, Профессиональный (двухголосый закадровый)
    • Субтитры: Русские
    • Оригинальная аудиодорожка: Есть

    • Режиссер: Ян де Бонт

    • В ролях: Анджелина Джоли, Джерард Батлер, Кирен Хайдз, Крис Барри, Ноа Тейлор, Джимон Хунсу, Тиль Швайгер, Саймон Ям, Теренс Йин, Даниэль Кальтаджироне

    • Описание: Во второй серии приключений прекрасной расхитительницы гробниц Лары Крофт география действия становится ещё обширней и экзотичней. Ларе предстоит побывать в Греции, Кении, Танзании, Гонконге и Китае, и, разумеется, не для того, чтобы оценить местные красоты.
    Она будет противостоять злодею-интеллектуалу Чену Ло, возглавляющему китайский преступный синдикат. Ло, искусный бизнесмен и хладнокровный убийца, замыслил украсть мифический Ящик Пандоры из ушедшего под воду храма, чтобы использовать его как оружие Судного дня…

    [img]http://i65.fastpic.ru/big/2015/0818/d4/744e99baca761b613f1a0bd93423bcd4.gif[/img][img]https://rating.kinopoisk.ru/7988.gif[/img]
    • Релиз: [img]https://a.radikal.ru/a30/1805/9d/3a9abdd6febe.gif[/img]
    • Тип релиза: BDRip 1080p
    • Контейнер: MKV

    • Видео: x265, 10Bit, 1920х820 (16:9), 23,976 fps, ~7 009 kb/s, 0.186 bit/pixe
    • Аудио #1: Русский (AC3, 6 ch, 448 Кбит/с) / Дублированный  
    • Аудио #2: Русский (dts, 6 ch, 768 Кбит/с) / Профессиональный (двухголосый, закадровый) - Гланц и Королёва
    • Аудио #3: Английский (AC3, 6 ch, 640 Кбит/с)
    MediaInfo

    General
    Unique ID                   : 153938653723665360884253462198699383450 (0x73CF819B9969ED86FE10C029A4C75A9A)
    Complete name               : N:Лара Крофт Расхитительница гробниц 2 - Колыбель жизни (2003) BDRip 1080p [HEVC] 10Bit_Druidblack.mkv
    Format                      : Matroska
    Format version              : Version 4 / Version 2
    File size                   : 7.28 GiB
    Duration                    : 1 h 57 min
    Overall bit rate            : 8 880 kb/s
    Encoded date                : UTC 2018-06-12 16:16:38
    Writing application         : mkvmerge v24.0.0 ("Beyond The Pale") 64-bit
    Writing library             : libebml v1.3.6 + libmatroska v1.4.9
    Cover                       : Yes
    Attachments                 : cover.jpg
    Encoding Gui                : Hybrid 2018.06.04.1

    Video
    ID                          : 1
    Format                      : HEVC
    Format/Info                 : High Efficiency Video Coding
    Format profile              : Main 10@L5.1@High
    Codec ID                    : V_MPEGH/ISO/HEVC
    Duration                    : 1 h 57 min
    Bit rate                    : 7 009 kb/s
    Width                       : 1 920 pixels
    Height                      : 820 pixels
    Display aspect ratio        : 2.35:1
    Frame rate mode             : Constant
    Frame rate                  : 23.976 (24000/1001) FPS
    Color space                 : YUV
    Chroma subsampling          : 4:2:0 (Type 0)
    Bit depth                   : 10 bits
    Bits/(Pixel*Frame)          : 0.186
    Stream size                 : 5.74 GiB (79%)
    Writing library             : x265 2.8+12-9cde2c278464:[Windows][GCC 7.3.0][64 bit] 10bit
    Encoding settings           : cpuid=1049071 / frame-threads=4 / wpp / no-pmode / no-pme / no-psnr / no-ssim / log-level=2 / input-csp=1 / input-res=1920x820 / interlace=0 / total-frames=0 / level-idc=51 / high-tier=1 / uhd-bd=0 / ref=5 / no-allow-non-conformance / no-repeat-headers / annexb / no-aud / no-hrd / info / hash=0 / no-temporal-layers / open-gop / min-keyint=23 / keyint=240 / gop-lookahead=0 / bframes=8 / b-adapt=2 / b-pyramid / bframe-bias=0 / rc-lookahead=40 / lookahead-slices=5 / scenecut=40 / radl=0 / no-intra-refresh / ctu=64 / min-cu-size=8 / rect / no-amp / max-tu-size=32 / tu-inter-depth=3 / tu-intra-depth=3 / limit-tu=4 / rdoq-level=2 / dynamic-rd=0.00 / no-ssim-rd / signhide / no-tskip / nr-intra=0 / nr-inter=0 / no-constrained-intra / no-strong-intra-smoothing / max-merge=3 / limit-refs=3 / limit-modes / me=3 / subme=7 / merange=57 / temporal-mvp / weightp / weightb / no-analyze-src-pics / deblock=-3:-3 / no-sao / no-sao-non-deblock / rd=4 / no-early-skip / rskip / no-fast-intra / no-tskip-fast / no-cu-lossless / no-b-intra / no-splitrd-skip / rdpenalty=0 / psy-rd=2.00 / psy-rdoq=1.00 / no-rd-refine / no-lossless / cbqpoffs=0 / crqpoffs=0 / rc=crf / crf=18.0 / qcomp=0.60 / qpstep=4 / stats-write=0 / stats-read=0 / vbv-maxrate=160000 / vbv-bufsize=160000 / vbv-init=0.9 / crf-max=0.0 / crf-min=0.0 / ipratio=1.40 / pbratio=1.30 / aq-mode=1 / aq-strength=1.00 / cutree / zone-count=1 / zones: / start-frame=158195 / end-frame=168768 / qp=35 / no-strict-cbr / qg-size=32 / no-rc-grain / qpmax=69 / qpmin=0 / no-const-vbv / sar=0 / overscan=0 / videoformat=5 / range=0 / colorprim=2 / transfer=2 / colormatrix=1 / chromaloc=1 / chromaloc-top=0 / chromaloc-bottom=0 / display-window=0 / max-cll=0,0 / min-luma=0 / max-luma=1023 / log2-max-poc-lsb=8 / vui-timing-info / vui-hrd-info / slices=1 / no-opt-qp-pps / no-opt-ref-list-length-pps / no-multi-pass-opt-rps / scenecut-bias=0.05 / no-opt-cu-delta-qp / no-aq-motion / no-hdr / no-hdr-opt / no-dhdr10-opt / no-idr-recovery-sei / analysis-reuse-level=5 / scale-factor=0 / refine-intra=0 / refine-inter=0 / refine-mv=0 / no-limit-sao / ctu-info=0 / no-lowpass-dct / refine-mv-type=0 / copy-pic=1 / max-ausize-factor=1.0 / no-dynamic-refine / no-single-sei
    Default                     : Yes
    Forced                      : Yes
    Color range                 : Limited
    Matrix coefficients         : BT.709

    Audio #1
    ID                          : 2
    Format                      : AC-3
    Format/Info                 : Audio Coding 3
    Codec ID                    : A_AC3
    Duration                    : 1 h 57 min
    Bit rate mode               : Constant
    Bit rate                    : 448 kb/s
    Channel(s)                  : 6 channels
    Channel positions           : Front: L C R, Side: L R, LFE
    Sampling rate               : 48.0 kHz
    Frame rate                  : 31.250 FPS (1536 SPF)
    Bit depth                   : 16 bits
    Compression mode            : Lossy
    Stream size                 : 376 MiB (5%)
    Title                       : Дубляж
    Language                    : Russian
    Service kind                : Complete Main
    Default                     : Yes
    Forced                      : No

    Audio #2
    ID                          : 3
    Format                      : DTS
    Format/Info                 : Digital Theater Systems
    Codec ID                    : A_DTS
    Duration                    : 1 h 57 min
    Bit rate mode               : Constant
    Bit rate                    : 768 kb/s
    Channel(s)                  : 6 channels
    Channel positions           : Front: L C R, Side: L R, LFE
    Sampling rate               : 48.0 kHz
    Frame rate                  : 93.750 FPS (512 SPF)
    Bit depth                   : 16 bits
    Compression mode            : Lossy
    Stream size                 : 644 MiB (9%)
    Title                       : Гланц и Королёва
    Language                    : Russian
    Default                     : No
    Forced                      : No

    Audio #3
    ID                          : 4
    Format                      : AC-3
    Format/Info                 : Audio Coding 3
    Codec ID                    : A_AC3
    Duration                    : 1 h 57 min
    Bit rate mode               : Constant
    Bit rate                    : 640 kb/s
    Channel(s)                  : 6 channels
    Channel positions           : Front: L C R, Side: L R, LFE
    Sampling rate               : 48.0 kHz
    Frame rate                  : 31.250 FPS (1536 SPF)
    Bit depth                   : 16 bits
    Compression mode            : Lossy
    Stream size                 : 537 MiB (7%)
    Language                    : English
    Service kind                : Complete Main
    Default                     : No
    Forced                      : No

    Text
    ID                          : 5
    Format                      : PGS
    Muxing mode                 : zlib
    Codec ID                    : S_HDMV/PGS
    Codec ID/Info               : Picture based subtitle format used on BDs/HD-DVDs
    Duration                    : 1 h 45 min
    Bit rate                    : 27.6 kb/s
    Count of elements           : 1683
    Stream size                 : 20.9 MiB (0%)
    Language                    : Russian
    Default                     : No
    Forced                      : No

    Menu
    00:00:00.000                : en:Chapter 1
    00:10:21.287                : en:Chapter 2
    00:16:53.137                : en:Chapter 3
    00:20:39.238                : en:Chapter 4
    00:27:42.077                : en:Chapter 5
    00:37:13.397                : en:Chapter 6
    00:42:44.144                : en:Chapter 7
    00:47:57.708                : en:Chapter 8
    00:56:08.531                : en:Chapter 9
    01:02:50.808                : en:Chapter 10
    01:10:01.197                : en:Chapter 11
    01:19:36.188                : en:Chapter 12
    01:27:25.740                : en:Chapter 13
    01:35:56.208                : en:Chapter 14
    01:40:22.516                : en:Chapter 15
    01:47:52.966                : en:Chapter 16


    Еще похожие »

    Как скачать?
    1. Качаем UTorrent версии 2.0 и выше отсюда
    2. После установки, жмем на ссылку Скачать торрент.
    3. Открываем его через utorrent.
    4. Ждем пока подключатся участники.
    5. Качаем.


    Комментарии о Лара Крофт: Расхитительница гробниц 2 - Колыбель жизни / Lara Croft Tomb Raider: The Cradle of Life | BDRip-HEVC 1080p
    Добавлять комментарии могут только зарегистрированные пользователи

    Зарегистрироваться или Войти


    Ближайшее в кино
    • Кто украл Banksy дата выхода 25 июня 2018Кто украл Banksy
      Дата выхода: 25 июня 2018
    • 1031219|План побега 2|28 июня 2018|200|300План побега 2
      Дата выхода: 28 июня 2018
    • 938461|Убийца 2. Против всех|28 июня 2018|200|300Убийца 2. Против всех
      Дата выхода: 28 июня 2018
    • 912012|Распрекрасный принц|28 июня 2018|200|300Распрекрасный принц
      Дата выхода: 28 июня 2018
    • 1015040|Во власти стихии|28 июня 2018|200|300Во власти стихии
      Дата выхода: 28 июня 2018
    • 759874|Ты водишь!|28 июня 2018|200|300Ты водишь!
      Дата выхода: 28 июня 2018
    • 1077873|Книжный клуб|28 июня 2018|200|300Книжный клуб
      Дата выхода: 28 июня 2018
    • 1047708|Инсомния|28 июня 2018|200|300Инсомния
      Дата выхода: 28 июня 2018
    • 1026748|Джим Пуговка и машинист Лукас|28 июня 2018|200|300Джим Пуговка и машинист Лукас
      Дата выхода: 28 июня 2018
    • 1038941|Осторожно: Грамп!|28 июня 2018|200|300Осторожно: Грамп!
      Дата выхода: 28 июня 2018
    • 977767|50 весенних дней|28 июня 2018|200|30050 весенних дней
      Дата выхода: 28 июня 2018
    • 1162806|Идеальный муж|4 июля 2018|200|300Идеальный муж
      Дата выхода: 4 июля 2018
    • 935940|Человек-муравей и Оса|5 июля 2018|200|300Человек-муравей и Оса
      Дата выхода: 5 июля 2018
    • 977435|Невидимка|5 июля 2018|200|300Невидимка
      Дата выхода: 5 июля 2018
    • 988157|Париж. Город Zомби|5 июля 2018|200|300Париж. Город Zомби
      Дата выхода: 5 июля 2018
    Вверх