• Игры для PS4
  • Игры для PS3
  • Игры для XBOX360
  • Игры для PC
  • Игры для PS2
  • Игры для PSP
  • Для телефонов
  • Музыка
  • Книги / Журналы
  • Обои
  • Опрос
    Откуда Вы о нас узнали?
      0
    • От знакомых2,1,false,300,full
    • Из социальных сетей2,2,false,300,full
    • Из поисковых систем2,3,false,300,full
    • Другое2,4,false,300,full
    Статистика
    Всего онлайн -
    Гостей -
    Пользователей -
    Короли трекера
    
    Благодарности () Закрыть
    Информация о фильме
    Название: Убийцы леди
    Оригинальное название: The Ladykillers
    Год выхода: 1955
    Жанр:  Комедия, триллер, криминал
    Режиссер: Александр Маккендрик

    В ролях:Кэти Джонсон, Алек Гиннесс / Alec Guinness, Сесил Паркер, Херберт Лом, Питер Селлерс, Дэнни Грин, Джек Уорнер, Филип Стейнтон, Фрэнки Ховерд

    Описание:
    Профессор музыки мистер Маркус снял комнату в доме старенькой миссис Луизы Александры Уилберфорс. Старушке и в голову не могло прийти, что липовый профессор не знает ни одной ноты, а над ней самой нависла опасность...



    Страна: Великобритания
    Студия: Ealing Studios,The Rank Organisation Film Productions Ltd.
    Продолжительность: 01:30:41
    Перевод: Профессиональный многоголосый [НТВ]
    Субтитры: Нет

    Файл
    Кодек: x264
    Качество: BDRip 1080p [BDRemux 1080p_HDclub]
    Видео: 1480x1080 / ~10600 kbps / 24 fps / High Profile 4.1
    Аудио №1: Russian / AC3 / 192 kbps / 2.0ch / 48 kHz / 192 kbps
    Аудио №2: English / AC3 / 192 kbps / 2.0ch / 48 kHz / 192 kbps

    ***Сохранены оригинальные чаптеры как на Blu-ray.


    M/I
    x264 info:
    x264 info: frame I:892   Avg QP:17.42  size:167980
    x264 info: frame P:23910 Avg QP:18.46  size: 92059
    x264 info: frame B:105795 Avg QP:20.30  size: 47563
    x264 info: consecutive B-frames:  0.9%  0.5%  2.5% 15.3% 10.9% 54.5%  6.5%  4.4%  2.1%  2.5%

    General
    Unique ID                   : 67015418291820967199705275890331149258 (0x326AB3389965D7DC07BCAE6878F1E3CA)
    Complete name               : G:Видео_1Убийцы леди_1955_BLU-RAY.720p_[-=DoMiNo=-].mkv
    Format                      : Matroska
    Format version              : Version 4 / Version 2
    File size                   : 7.12 GiB
    Duration                    : 1 h 30 min
    Overall bit rate            : 11.2 Mb/s
    Movie name                  : Убийцы леди
    Deion                 : Средь бела дня в дом пожилой леди, миссис Уилберфорс, постучал неизвестный джентльмен. Представившись профессором музыки, мистером Маркусом, он пожелал снять у неё комнату, заранее предупредив, что к нему для репетиций будут наведываться коллеги.. Кто же знал, что под видом почтенных граждан струнного квинтета скрываются грабители, обдумывающие очередной гоп-стоп. Дельце выгорает, и с украденным они являются в дом миссис Уилберфорс. По просьбе профессора старушка соглашается вывезти его «багаж» с вокзала, не подозревая, что он набит награбленной наличностью. Получив деньги и распрощавшись с милой старушкой, преступники покидают её дом. Однако при захлопывании двери случается несуразная мелочь — и старушка понимает, что её жилец ведёт нечестную игру. Посчитав старушку ненужным свидетелем, они решают её убить, но исполнить это не так-то просто...
    Writing application         : XviD4PSP 7.0.452 DAILY
    Writing library             : Lavf57.71.100
    ErrorDetectionType          : Per level 1
    Attachments                 : poster.jpg
    ACTORS                      : Alec Guinness, Cecil Parker, Herbert Lom, Peter Sellers, Danny Green, Katie Johnson, Jack Warner, Philip Stainton, Frankie Howerd, Madge Brindley, Helene Burls, Kenneth Connor, Michael Corcoran, Harold Goodwin, Fred Griffiths, Lucy Griffiths, George Hilsdon, Vincent Holman, Stratford Johns, Sam Kydd, Aileen Lewis, Edie Martin, Jack Melford, Arthur Mullard, Ewan Roberts, George Roderick, John Rudling, Leonard Sharp, Peter Williams, Neil Wilson
    COMPOSER                    : Tristram Cary
    COUNTRY                     : United Kingdom
    DATE                        : 1955-12-08
    DIRECTOR                    : Alexander Mackendrick
    ENCODING_INFO               : BluRay > MKV 1080p / H264 > X264 CRF 18.0 Пользовательский 2 / AC3 > COPY Безопасное / DTS-HD MA > AC3 CBR 192kbps
    GENRE                       : комедия, криминал
    HD_VIDEO                    : 1
    ITUNEXTC                    : U
    Language                    : und
    MEDIA_TYPE                  : 9
    ORIGINAL_TITLE              : The Ladykillers
    PRODUCER                    : Michael Balcon
    PUBLISHER                   : The Rank Organisation, Ealing Studios
    RATING                      : 7.30
    WRITER                      : William Rose, Jimmy O"Connor

    Video
    ID                          : 1
    Format                      : AVC
    Format/Info                 : Advanced Video Codec
    Format profile              : High@L4.1
    Format settings             : CABAC / 5 Ref Frames
    Format settings, CABAC      : Yes
    Format settings, ReFrames   : 5 frames
    Codec ID                    : V_MPEG4/ISO/AVC
    Duration                    : 1 h 30 min
    Bit rate                    : 10.6 Mb/s
    Width                       : 1 480 pixels
    Height                      : 1 080 pixels
    Display aspect ratio        : 1.370
    Frame rate mode             : Constant
    Frame rate                  : 24.000 FPS
    Color space                 : YUV
    Chroma subsampling          : 4:2:0
    Bit depth                   : 8 bits
    Scan type                   : Progressive
    Bits/(Pixel*Frame)          : 0.277
    Stream size                 : 6.74 GiB (95%)
    Title                       : RIP_BY_-=DoMiNo=-
    Writing library             : x264 core 155 r2901M 7d0ff22
    Encoding settings           : cabac=1 / ref=5 / deblock=1:-3:-3 / analyse=0x3:0x113 / me=umh / subme=10 / psy=1 / psy_rd=1.00:0.10 / mixed_ref=1 / me_range=32 / chroma_me=1 / trellis=2 / 8x8dct=1 / cqm=0 / deadzone=21,11 / fast_pskip=0 / chroma_qp_offset=-3 / threads=6 / lookahead_threads=1 / sliced_threads=0 / nr=0 / decimate=1 / interlaced=0 / bluray_compat=0 / constrained_intra=0 / bframes=9 / b_pyramid=2 / b_adapt=2 / b_bias=0 / direct=3 / weightb=1 / open_gop=0 / weightp=2 / keyint=240 / keyint_min=24 / scenecut=40 / intra_refresh=0 / rc=crf / mbtree=0 / crf=18.0 / qcomp=0.60 / qpmin=0 / qpmax=69 / qpstep=4 / ip_ratio=1.40 / pb_ratio=1.30 / aq=1:1.00
    Default                     : Yes
    Forced                      : No
    Color range                 : Limited
    Color primaries             : BT.709
    Transfer characteristics    : BT.709
    Matrix coefficients         : BT.709

    Audio #1
    ID                          : 2
    Format                      : AC-3
    Format/Info                 : Audio Coding 3
    Codec ID                    : A_AC3
    Duration                    : 1 h 30 min
    Bit rate mode               : Constant
    Bit rate                    : 192 kb/s
    Channel(s)                  : 2 channels
    Channel positions           : Front: L R
    Sampling rate               : 48.0 kHz
    Frame rate                  : 31.250 FPS (1536 SPF)
    Bit depth                   : 16 bits
    Compression mode            : Lossy
    Stream size                 : 125 MiB (2%)
    Title                       : MVO_НТВ
    Language                    : Russian
    Service kind                : Complete Main
    Default                     : Yes
    Forced                      : No

    Audio #2
    ID                          : 3
    Format                      : AC-3
    Format/Info                 : Audio Coding 3
    Codec ID                    : A_AC3
    Duration                    : 1 h 30 min
    Bit rate mode               : Constant
    Bit rate                    : 192 kb/s
    Channel(s)                  : 2 channels
    Channel positions           : Front: L R
    Sampling rate               : 48.0 kHz
    Frame rate                  : 31.250 FPS (1536 SPF)
    Bit depth                   : 16 bits
    Compression mode            : Lossy
    Stream size                 : 125 MiB (2%)
    Title                       : ENG
    Language                    : English
    Service kind                : Complete Main
    Default                     : No
    Forced                      : No

    Menu
    00:00:00.000                : :Глава 1
    00:07:59.291                : :Глава 2
    00:18:13.750                : :Глава 3
    00:25:26.750                : :Глава 4
    00:31:46.541                : :Глава 5
    00:38:19.750                : :Глава 6
    00:45:58.583                : :Глава 7
    00:52:50.208                : :Глава 8
    01:04:28.750                : :Глава 9
    01:10:35.832                : :Глава 10
    01:18:23.750                : :Глава 11
    01:27:28.000                : :Глава 12
    01:30:41.291                : :Глава 13Свернуть


    Скриншоты
    [screen]http://i4.imageban.ru/out/2018/06/13/9d3a3e7818ddd4f450459111ef23758d.png[/screen][screen]http://i1.imageban.ru/out/2018/06/13/63c03a67be5e4b3ad2f94976d4d722fb.png[/screen][screen]http://i2.imageban.ru/out/2018/06/13/2b6f2e3da734e192a453b19e8479f8a0.png[/screen][screen]http://i4.imageban.ru/out/2018/06/13/7b1ab359aea2e83e25b8623e7ad272e7.png[/screen][screen]http://i4.imageban.ru/out/2018/06/13/1a1d072193322e2b0be4d393865c97b8.png[/screen][screen]http://i6.imageban.ru/out/2018/06/13/f9febfec8ef10e6742f51c588b6d5da0.png[/screen][screen]http://i2.imageban.ru/out/2018/06/13/9ea887eee00e39751f96a5379c76dc38.png[/screen][screen]http://i6.imageban.ru/out/2018/06/13/550b875f2d80dd824fa7599bf166c53a.png[/screen][screen]http://i4.imageban.ru/out/2018/06/13/96734fb1a890e0e1b1fe6919871d8182.png[/screen][screen]http://i6.imageban.ru/out/2018/06/13/0413f1d5ae93bd9afbeefb7ed3e06cbf.png[/screen][screen]http://i4.imageban.ru/out/2018/06/13/0f3ada96c52eae0af31a55ab783c4e72.png[/screen][screen]http://i6.imageban.ru/out/2018/06/13/e6e8abe5740f7e5298beed7f8af04439.png[/screen][screen]http://i5.imageban.ru/out/2018/06/13/b89e1e7f9c60e4bf6ac0722461bb1a6e.png[/screen]Свернуть
    Инструкция по скачиванию
     1  Качаем uTorrent версии 2.0 и выше
     2  После установки, жмем выше под постером на ссылку Скачать [MediaGet] или Скачать .torrent
     3  Открываем скачанный файл через соответствующий клиент: MediaGet или uTorrent
     4  Ждем пока подключатся участники
     5  Качаем
    Комментарии о  Убийцы леди / The Ladykillers | BDRip 1080p 
    Ближайшее в кино
    Вверх