• Игры для PS4
  • Игры для PS3
  • Игры для XBOX360
  • Игры для PC
  • Игры для PS2
  • Игры для PSP
  • Для телефонов
  • Музыка
  • Книги / Журналы
  • Обои
  • Опрос
    Удобен ли сайт в использовании?
      0
    • Очень удобен, все понятно1,1,false,300,full
    • Удобен1,2,false,300,full
    • Средне1,3,false,300,full
    • Неудобен, трудно ориентироваться1,4,false,300,full
    • Совсем неудобен1,5,false,300,full
    Статистика
    Всего онлайн -
    Гостей -
    Пользователей -
    Короли трекера
    
    Благодарности () Закрыть
    Информация о фильме
    Название: Небольшой лес: Лето и осень
    Оригинальное название: Little Forest: Summer
    Год выхода: 2014
    Жанр: драма
    Режиссер: Дзюнъити Мори
    В ролях: Аи Хасимото, Маю Мацуока, Ёити Нукумидзу, Карен Киришма, Такахиро Миура

    Описание: История о девушке по имени Итико. Будучи самодостаточной и бескомпромиссной она решается на переезд из душного большого города в небольшой городок региона Тохоку. Здесь Итико пытается начать новую жизнь, получая удовольствие и энергетику от настоящей природы и её даров. Благодаря сезонным овощам и фруктам она учится создавать вкуснейшие блюда.



    Страна: Япония
    Продолжительность: 01:53:02
    Перевод: Субтитры
    Субтитры: английские (SkewedS), русские (ФСГ "Kingdom Loli-Pop Stars!")
    Оригинальная аудиодорожка: японский

    Файл
    Качество: BDRip 720p
    Видео: x264, 1280x720 (16:9) at 23,976 fps, 5241 kbps, 0.237 bpp
    Звук: AC3, 640 kbps, 6 ch, 48 khz | Японский |

    Скриншоты
    [screen]http://img12.lostpic.net/2018/06/13/768c05d09982780b4e41554959946f78.png[/screen][screen]http://img12.lostpic.net/2018/06/13/11c693da5ad8399aeb0b4ad3b74b7e87.png[/screen][screen]http://img12.lostpic.net/2018/06/13/3ced482331f2058bee649cac7fddce70.png[/screen]Свернуть


    MediaInfo
    General
    Unique ID                                : 181326909627140970241234603016129087501 (0x886A4AE11C3DF573BA9E3E02E300080D)
    Complete name                            : Маленький лес. Лето, осень.2014.RUSSUB.720p.BluRay.x264-VietHD.mkv
    Format                                   : Matroska
    Format version                           : Version 4 / Version 2
    File size                                : 4.74 GiB
    Duration                                 : 1h 53mn
    Overall bit rate                         : 6 000 Kbps
    Movie name                               : Little Forest: Summer/Autumn [2014] [720p] RUSSUB
    Encoded date                             : UTC 2016-09-04 00:12:58
    Writing application                      : mkvmerge v7.8.0 ("River Man") 32bit built on Mar 27 2015 16:18:02
    Writing library                          : libebml v1.3.1 + libmatroska v1.4.2
    Attachements                             : oskord.ttf / timesi.ttf / ariali.ttf / arial.ttf / segoeprb.ttf

    Video
    ID                                       : 1
    Format                                   : AVC
    Format/Info                              : Advanced Video Codec
    Format profile                           : High@L4.1
    Format settings, CABAC                   : Yes
    Format settings, ReFrames                : 9 frames
    Codec ID                                 : V_MPEG4/ISO/AVC
    Duration                                 : 1h 53mn
    Bit rate                                 : 5 241 Kbps
    Width                                    : 1 280 pixels
    Height                                   : 720 pixels
    Display aspect ratio                     : 16:9
    Frame rate mode                          : Constant
    Frame rate                               : 23.976 fps
    Color space                              : YUV
    Chroma subsampling                       : 4:2:0
    Bit depth                                : 8 bits
    Scan type                                : Progressive
    Bits/(Pixel*Frame)                       : 0.237
    Stream size                              : 4.14 GiB (87%)
    Title                                    : profile.php?mode=viewprofile&u=22488948 || RG Orient Extreme Films
    Writing library                          : x264 core 148 r2665kMod a01e339
    Encoding settings                        : cabac=1 / ref=9 / deblock=1:-3:-3 / analyse=0x3:0x133 / me=umh / subme=10 / psy=1 / fade_compensate=0.00 / psy_rd=1.05:0.00 / mixed_ref=1 / me_range=24 / chroma_me=1 / trellis=2 / 8x8dct=1 / cqm=0 / deadzone=21,11 / fast_pskip=0 / chroma_qp_offset=-2 / threads=12 / lookahead_threads=3 / sliced_threads=0 / nr=0 / decimate=0 / interlaced=0 / bluray_compat=0 / constrained_intra=0 / fgo=0 / bframes=11 / b_pyramid=2 / b_adapt=2 / b_bias=0 / direct=3 / weightb=1 / open_gop=0 / weightp=2 / keyint=250 / keyint_min=23 / scenecut=40 / intra_refresh=0 / rc_lookahead=60 / rc=crf / mbtree=0 / crf=16.0000 / qcomp=0.62 / qpmin=0 / qpmax=69 / qpstep=4 / vbv_maxrate=62500 / vbv_bufsize=78125 / crf_max=0.0 / nal_hrd=none / filler=0 / ip_ratio=1.30 / pb_ratio=1.20 / aq=3:0.75
    Language                                 : Japanese
    Default                                  : Yes
    Forced                                   : No
    Matrix coefficients                      : BT.709
    Color range                              : Limited

    Audio
    ID                                       : 2
    Format                                   : AC-3
    Format/Info                              : Audio Coding 3
    Mode extension                           : CM (complete main)
    Format settings, Endianness              : Big
    Codec ID                                 : A_AC3
    Duration                                 : 1h 53mn
    Bit rate mode                            : Constant
    Bit rate                                 : 640 Kbps
    Channel(s)                               : 6 channels
    Channel positions                        : Front: L C R, Side: L R, LFE
    Sampling rate                            : 48.0 KHz
    Bit depth                                : 16 bits
    Compression mode                         : Lossy
    Stream size                              : 517 MiB (11%)
    Language                                 : Japanese
    Default                                  : Yes
    Forced                                   : No

    Text #1
    ID                                       : 3
    Format                                   : ASS
    Codec ID                                 : S_TEXT/ASS
    Codec ID/Info                            : Advanced Sub Station Alpha
    Compression mode                         : Lossless
    Title                                    : [ФСГ "Kingdom Loli-Pop Stars!"]
    Language                                 : Russian
    Default                                  : Yes
    Forced                                   : No

    Text #2
    ID                                       : 4
    Format                                   : UTF-8
    Codec ID                                 : S_TEXT/UTF8
    Codec ID/Info                            : UTF-8 Plain Text
    Title                                    : fansub (SkewedS)
    Language                                 : English
    Default                                  : No
    Forced                                   : No

    Menu
    00:00:00.000                             : en:00:00:00.000
    00:00:15.015                             : en:00:00:15.015
    00:06:06.408                             : en:00:06:06.408
    00:11:17.135                             : en:00:11:17.135
    00:20:16.632                             : en:00:20:16.632
    00:27:41.410                             : en:00:27:41.410
    00:35:03.643                             : en:00:35:03.643
    00:40:00.315                             : en:00:40:00.315
    00:47:39.023                             : en:00:47:39.023
    00:53:17.194                             : en:00:53:17.194
    00:57:11.428                             : en:00:57:11.428
    01:01:45.201                             : en:01:01:45.201
    01:07:31.381                             : en:01:07:31.381
    01:14:39.642                             : en:01:14:39.642
    01:16:56.111                             : en:01:16:56.111
    01:24:42.077                             : en:01:24:42.077
    01:31:11.591                             : en:01:31:11.591
    01:36:50.930                             : en:01:36:50.930
    01:48:10.484                             : en:01:48:10.484
    01:51:56.710                             : en:01:51:56.710Свернуть
    Похожие раздачи Искать похожие
    Инструкция по скачиванию
     1  Качаем uTorrent версии 2.0 и выше
     2  После установки, жмем выше под постером на ссылку Скачать [MediaGet] или Скачать .torrent
     3  Открываем скачанный файл через соответствующий клиент: MediaGet или uTorrent
     4  Ждем пока подключатся участники
     5  Качаем
    Комментарии о  Небольшой лес: Лето и осень / Little Forest: Summer | BDRip 720p 
    Ближайшее в кино
    Вверх