• Игры для PS4
  • Игры для PS3
  • Игры для XBOX360
  • Игры для PC
  • Игры для PS2
  • Игры для PSP
  • Для телефонов
  • Музыка
  • Книги / Журналы
  • Обои
  • Опрос
    Удобен ли сайт в использовании?
      0
    • Очень удобен, все понятно1,1,false,300,full
    • Удобен1,2,false,300,full
    • Средне1,3,false,300,full
    • Неудобен, трудно ориентироваться1,4,false,300,full
    • Совсем неудобен1,5,false,300,full
    Статистика
    Всего онлайн -
    Гостей -
    Пользователей -
    Короли трекера
    
    Благодарности () Закрыть
    Информация о фильме
    Название: Чёрные воды
    Оригинальное название: Black Water
    Год выхода: 2018
    Жанр: Боевик
    Режиссер: Павел Патрики
    В ролях:   Аарон О"Коннелл, Дольф Лундгрен, Жан-Клод Ван Дамм, Патрик Килпатрик, Ал Сапиенца, Джасмин Уолтц, Джон Пози, Кристофер Ван Варенберг, Кортни Би Турк

    О фильме: Законспирированный агент под прикрытием Скотт Уилер приходит в себя где-то посреди Атлантического океана. Он оказывается в тайной тюрьме ЦРУ на подводной лодке, а значит сбежать оттуда — практически невозможно. Однако такого слова нет в словаре шпиона-легенды, к тому же на помощь к нему приходит немецкий агент Марко. Вместе им предстоит распутать дело о предательстве национального масштаба, перебить команду хорошо обученной охраны и найти путь наружу. Но сперва необходимо вспомнить, что же на самом деле произошло и закинуло агента Уилера в место, которого не существует ни в одних правительственных документах?

    Страна: США, Канада
    Студия: Dawn"s Light
    Продолжительность: 01:40:19
    Перевод: Любительский двухголосый [HiWay Grope]
    Файл
    Кодек: MPEG-2
    Качество: DVD-9
    Видео: MPEG2, PAL  16:9 (720x576@1024x576) VBR, 25,000 кадров/сек
    Звук: Русский DD 2.0 (192 Kbps), Английский / Немецкий DD 5.1 (448 Kbps)

    [img]http://imdb.snick.ru/ratefor/02/tt5622412.png[/img][img]https://rating.kinopoisk.ru/982808.gif[/img]



    DVDInfo

    Title:
    Size: 6.83 Gb ( 7 164 022 KBytes ) - DVD-9
    Enabled regions: 1, 2, 3, 4, 5, 6, 7, 8

    VTS_01 :
    Play Length: 00:00:19
    Video: PAL 16:9 (720x576) VBR, Auto Pan&Scan
    Audio:
    Deutsch (Dolby AC3, 2 ch)

    VTS_02 :
    Play Length: 00:00:15
    Video: PAL 16:9 (720x576) VBR, Auto Pan&Scan
    Audio:
    Deutsch (Dolby AC3, 2 ch)

    VTS_03 :
    Play Length: 01:40:19
    Video: PAL 16:9 (720x576) VBR, Auto Pan&Scan
    Audio:
    Deutsch (Dolby AC3, 6 ch)
    English (Dolby AC3, 6 ch)
    Russian (Dolby AC3, 2 ch)
    Subtitles:
    Deutsch

    VTS_04 :
    Play Length: 00:01:05
    Video: PAL 16:9 (720x576) VBR, Auto Pan&Scan
    Audio:
    English (Dolby AC3, 2 ch)

    VTS_05 :
    Play Length: 00:00:49
    Video: PAL 16:9 (720x576) VBR, Auto Pan&Scan
    Audio:
    Deutsch (Dolby AC3, 2 ch)

    VTS_06 :
    Play Length: 00:02:06
    Video: PAL 16:9 (720x576) VBR, Auto Pan&Scan
    Audio:
    Deutsch (Dolby AC3, 6 ch)

    VTS_07 :
    Play Length: 00:01:47
    Video: PAL 16:9 (720x576) VBR, Auto Pan&Scan
    Audio:
    Deutsch (Dolby AC3, 6 ch)

    VTS_08 :
    Play Length: 00:01:21
    Video: PAL 16:9 (720x576) VBR, Auto Pan&Scan
    Audio:
    Deutsch (Dolby AC3, 2 ch)

    VTS_09 :
    Play Length: 00:00:08
    Video: PAL 16:9 (720x576) VBR, Auto Pan&Scan
    Audio:
    Deutsch (Dolby AC3, 2 ch)
    English (Dolby AC3, 2 ch)
    Subtitles:
    Deutsch

    VTS_10 :
    Play Length: 00:00:10
    Video: PAL 16:9 (720x576) VBR, Auto Pan&Scan
    Audio:
    English (Dolby AC3, 2 ch)
    Subtitles:
    Deutsch

    Menu Video:
    NTSC 4:3 (720x480) VBR
    Auto Pan&Scan, Auto Letterboxed
    Menu Deutsch Language Unit :
    Root Menu

    Свернуть


    MediaInfo

    Общее
    Полное имя                               : G:ААА2ЧЕРНЫЕ ВОДЫVIDEO_TSVTS_03_1.VOB
    Формат                                   : MPEG-PS
    Размер файла                             : 1024 Мбайт
    Продолжительность                        : 15 м.
    Режим общего битрейта                    : Переменный
    Общий поток                              : 9256 Кбит/сек

    Видео
    Идентификатор                            : 224 (0xE0)
    Формат                                   : MPEG Video
    Версия формата                           : Version 2
    Профиль формата                          : Main@Main
    Параметр BVOP формата                    : Да
    Параметр матрицы формата                 : Выборочная
    Параметр GOP формата                     : Variable
    Продолжительность                        : 15 м.
    Вид битрейта                             : Переменный
    Битрейт                                  : 8000 Кбит/сек
    Ширина                                   : 720 пикселей
    Высота                                   : 576 пикселей
    Соотношение сторон                       : 16:9
    Частота кадров                           : 25,000 кадров/сек
    Стандарт вещания                         : PAL
    Цветовое пространство                    : YUV
    Субдискретизация насыщенности            : 4:2:0
    Битовая глубина                          : 8 бит
    Тип развёртки                            : Чересстрочная
    Порядок развёртки                        : Верхнее поле первое
    Метод сжатия                             : С потерями
    Бит/(Пиксели*Кадры)                      : 0.772
    TimeCode_FirstFrame                      : 01:00:00:00
    TimeCode_Source                          : Group of pictures header
    Размер потока                            : 883 Мбайт (86%)

    Аудио #1
    Идентификатор                            : 189 (0xBD)-128 (0x80)
    Формат                                   : AC-3
    Формат/Информация                        : Audio Coding 3
    Расширение режима                        : CM (complete main)
    Параметр Endianness формата              : Big
    Режим смешивания                         : DVD-Video
    Продолжительность                        : 15 м.
    Вид битрейта                             : Постоянный
    Битрейт                                  : 448 Кбит/сек
    Каналы                                   : 6 каналов
    Расположение каналов                     : Front: L C R, Side: L R, LFE
    Частота                                  : 48,0 КГц
    Битовая глубина                          : 16 бит
    Метод сжатия                             : С потерями
    Размер потока                            : 49,5 Мбайт (5%)

    Аудио #2
    Идентификатор                            : 189 (0xBD)-129 (0x81)
    Формат                                   : AC-3
    Формат/Информация                        : Audio Coding 3
    Расширение режима                        : CM (complete main)
    Параметр Endianness формата              : Big
    Режим смешивания                         : DVD-Video
    Продолжительность                        : 15 м.
    Вид битрейта                             : Постоянный
    Битрейт                                  : 448 Кбит/сек
    Каналы                                   : 6 каналов
    Расположение каналов                     : Front: L C R, Side: L R, LFE
    Частота                                  : 48,0 КГц
    Битовая глубина                          : 16 бит
    Метод сжатия                             : С потерями
    Размер потока                            : 49,5 Мбайт (5%)

    Аудио #3
    Идентификатор                            : 189 (0xBD)-130 (0x82)
    Формат                                   : AC-3
    Формат/Информация                        : Audio Coding 3
    Расширение режима                        : CM (complete main)
    Параметр Endianness формата              : Big
    Режим смешивания                         : DVD-Video
    Продолжительность                        : 15 м.
    Вид битрейта                             : Постоянный
    Битрейт                                  : 192 Кбит/сек
    Каналы                                   : 2 канала
    Расположение каналов                     : Front: L R
    Частота                                  : 48,0 КГц
    Битовая глубина                          : 16 бит
    Метод сжатия                             : С потерями
    Размер потока                            : 21,2 Мбайт (2%)

    Текст
    Идентификатор                            : 189 (0xBD)-32 (0x20)
    Формат                                   : RLE
    Формат/Информация                        : Run-length encoding
    Режим смешивания                         : DVD-Video

    Меню

    Свернуть


    Похожие раздачи Искать похожие
    Инструкция по скачиванию
     1  Качаем uTorrent версии 2.0 и выше
     2  После установки, жмем выше под постером на ссылку Скачать [MediaGet] или Скачать .torrent
     3  Открываем скачанный файл через соответствующий клиент: MediaGet или uTorrent
     4  Ждем пока подключатся участники
     5  Качаем
    Комментарии о  Чёрные воды / Black Water | DVD-9 
    Ближайшее в кино
    Вверх