• Игры для PS4
  • Игры для PS3
  • Игры для XBOX360
  • Игры для PC
  • Игры для PS2
  • Игры для PSP
  • Для телефонов
  • Музыка
  • Книги / Журналы
  • Обои
  • Опрос
    Откуда Вы о нас узнали?
      0
    • От знакомых2,1,false,300,full
    • Из социальных сетей2,2,false,300,full
    • Из поисковых систем2,3,false,300,full
    • Другое2,4,false,300,full
    Статистика
    Всего онлайн -
    Гостей -
    Пользователей -
    Короли трекера
    
    Благодарности () Закрыть
    Информация о фильме
    Название: Снафф
    Оригинальное название: Snuff
    Год выхода: 1976
    Жанр: Ужасы, триллер
    Режиссер: Майкл Файндлей, Горацио Фредрикссон, Саймон Начтерн
    В ролях:   Ана Карро, Лилиана Фернандез Бланко, Майкл Файндлей, Роберта Файндлей, Альфредо Иглесиас, Мирта Масса, Альдо Майо

    О фильме: История вращается вокруг группы хиппи, которую возглавляет молодой парень по прозвищу «Сатана», и у коего в подчинении находятся четыре девушки, с которыми он спит, устраивает кровавые игры, истязая друг дружку, занимается наркоторговлей и убийствами.

    Страна: США, Канада, Аргентина
    Студия: August Films, Selected Pictures
    Продолжительность: 01:16:46
    Перевод: Любительский одноголосый (den904)
    Файл
    Кодек: MPEG-2
    Качество: DVD-9
    Видео: MPEG2, PAL  16:9 (720x576@1024x576) VBR, 25,000 кадров/сек
    Звук:   Русский DD 2.0 (192 Kbps), Английский / Немецкий DD 1.0 (192 Kbps)

    [img]http://imdb.snick.ru/ratefor/02/tt0072184.png[/img][img]https://rating.kinopoisk.ru/131194.gif[/img]



    DVDInfo

    Title:
    Size: 7.44 Gb ( 7 802 146 KBytes ) - DVD-9
    Enabled regions: 1, 2, 3, 4, 5, 6, 7, 8

    VTS_01 :
    Play Length: 01:16:46
    Video: PAL 16:9 (720x576) VBR, Auto Pan&Scan
    Audio:
    Deutsch (Dolby AC3, 1 ch)
    English (Dolby AC3, 1 ch)
    Russian (Dolby AC3, 2 ch)
    Subtitles:
    Deutsch
    Deutsch

    VTS_02 :
    Play Length: 00:00:06+00:00:15
    Video: PAL 16:9 (720x576) VBR, Auto Pan&Scan
    Audio:
    Deutsch (Dolby AC3, 2 ch)

    VTS_03 :
    Play Length: 00:02:54+00:05:42
    Video: PAL 16:9 (720x576) VBR, Auto Pan&Scan
    Audio:
    Deutsch (Dolby AC3, 1 ch)

    VTS_04 :
    Play Length: 00:01:54
    Video: PAL 4:3 (720x576) VBR
    Audio:
    Deutsch (Dolby AC3, 1 ch)

    VTS_05 :
    Play Length: 01:15:44
    Video: PAL 16:9 (720x576) VBR, Auto Pan&Scan
    Audio:
    Deutsch (Dolby AC3, 1 ch)

    Menu Video:
    PAL 16:9 (720x576) VBR
    Auto Pan&Scan
    Menu Subtitles:
    Not specified
    Menu English Language Unit :
    Root Menu
    Chapter (PTT) Menu

    Свернуть


    MediaInfo


    Общее
    Полное имя                               : G:ААА2СНАФФVIDEO_TSVTS_01_1.VOB
    Формат                                   : MPEG-PS
    Размер файла                             : 1024 Мбайт
    Продолжительность                        : 19 м.
    Режим общего битрейта                    : Переменный
    Общий поток                              : 7323 Кбит/сек

    Видео
    Идентификатор                            : 224 (0xE0)
    Формат                                   : MPEG Video
    Версия формата                           : Version 2
    Профиль формата                          : Main@Main
    Параметр BVOP формата                    : Да
    Параметр матрицы формата                 : Выборочная
    Параметр GOP формата                     : Variable
    Продолжительность                        : 19 м.
    Вид битрейта                             : Переменный
    Битрейт                                  : 6537 Кбит/сек
    Максимальный битрейт                     : 8600 Кбит/сек
    Ширина                                   : 720 пикселей
    Высота                                   : 576 пикселей
    Соотношение сторон                       : 16:9
    Частота кадров                           : 25,000 кадров/сек
    Стандарт вещания                         : PAL
    Цветовое пространство                    : YUV
    Субдискретизация насыщенности            : 4:2:0
    Битовая глубина                          : 8 бит
    Тип развёртки                            : Прогрессивная
    Метод сжатия                             : С потерями
    Бит/(Пиксели*Кадры)                      : 0.631
    TimeCode_FirstFrame                      : 00:00:00:00
    TimeCode_Source                          : Group of pictures header
    Размер потока                            : 914 Мбайт (89%)

    Аудио #1
    Идентификатор                            : 189 (0xBD)-128 (0x80)
    Формат                                   : AC-3
    Формат/Информация                        : Audio Coding 3
    Расширение режима                        : CM (complete main)
    Параметр Endianness формата              : Big
    Режим смешивания                         : DVD-Video
    Продолжительность                        : 19 м.
    Вид битрейта                             : Постоянный
    Битрейт                                  : 224 Кбит/сек
    Каналы                                   : 1 канал
    Расположение каналов                     : Front: C
    Частота                                  : 48,0 КГц
    Битовая глубина                          : 16 бит
    Метод сжатия                             : С потерями
    Размер потока                            : 31,3 Мбайт (3%)

    Аудио #2
    Идентификатор                            : 189 (0xBD)-129 (0x81)
    Формат                                   : AC-3
    Формат/Информация                        : Audio Coding 3
    Расширение режима                        : CM (complete main)
    Параметр Endianness формата              : Big
    Режим смешивания                         : DVD-Video
    Продолжительность                        : 19 м.
    Вид битрейта                             : Постоянный
    Битрейт                                  : 224 Кбит/сек
    Каналы                                   : 1 канал
    Расположение каналов                     : Front: C
    Частота                                  : 48,0 КГц
    Битовая глубина                          : 16 бит
    Метод сжатия                             : С потерями
    Размер потока                            : 31,3 Мбайт (3%)

    Аудио #3
    Идентификатор                            : 189 (0xBD)-130 (0x82)
    Формат                                   : AC-3
    Формат/Информация                        : Audio Coding 3
    Расширение режима                        : CM (complete main)
    Параметр Endianness формата              : Big
    Режим смешивания                         : DVD-Video
    Продолжительность                        : 19 м.
    Вид битрейта                             : Постоянный
    Битрейт                                  : 192 Кбит/сек
    Каналы                                   : 2 канала
    Расположение каналов                     : Front: L R
    Частота                                  : 48,0 КГц
    Битовая глубина                          : 16 бит
    Метод сжатия                             : С потерями
    Размер потока                            : 26,8 Мбайт (3%)

    Меню

    Свернуть


    Инструкция по скачиванию
     1  Качаем uTorrent версии 2.0 и выше
     2  После установки, жмем выше под постером на ссылку Скачать [MediaGet] или Скачать .torrent
     3  Открываем скачанный файл через соответствующий клиент: MediaGet или uTorrent
     4  Ждем пока подключатся участники
     5  Качаем
    Комментарии о  Снафф / Snuff | DVD-9 
    Ближайшее в кино
    Вверх