• Игры для PS4
  • Игры для PS3
  • Игры для XBOX360
  • Игры для PC
  • Игры для PS2
  • Игры для PSP
  • Для телефонов
  • Музыка
  • Книги / Журналы
  • Обои
  • Опрос
    Удобен ли сайт в использовании?
      0
    • Очень удобен, все понятно1,1,false,300,full
    • Удобен1,2,false,300,full
    • Средне1,3,false,300,full
    • Неудобен, трудно ориентироваться1,4,false,300,full
    • Совсем неудобен1,5,false,300,full
    Статистика
    Всего онлайн -
    Гостей -
    Пользователей -
    Короли трекера
    Благодарности () Закрыть
    Оригинальное название: Forrest Gump
    Год выхода: 1994
    Страна: США
    Студия: Paramount Pictures
    Продолжительность: 02:22:09
    Жанр: драма, мелодрама

    Режиссер: Роберт Земекис
    В ролях: Том Хэнкс, Робин Райт, Гэри Синиз, Майкелти Уильямсон, Салли Филд, Ребекка Уильямс, Майкл Коннер Хэмпфри, Хейли Джоэл Осмент, Харольд Дж. Хертэм, Джордж Келли, Боб Пенни, Джон Рэндолл, Сэм Андерсон, Марго Мурер, Иона М. Телек, Кристин Сибрук, Питер Добсон, Шиван Фэллон, ...

    Перевод:
    - Профессиональный (многоголосый, закадровый) Киномания / FDV
    - Профессиональный (многоголосый, закадровый) Позитив-Мультимедия
    - Профессиональный (многоголосый, закадровый) Медиа-Комплекс
    - Профессиональный (многоголосый, закадровый) НТВ+
    - Профессиональный (многоголосый, закадровый) Премьер Видео Фильм
    - Профессиональный (многоголосый, закадровый) СТС / РТР
    - Профессиональный (двуголосый, закадровый) Tycoon Studio
    - Авторский (одноголосый, закадровый) Сербин Юрий Владимирович
    - Субтитры

    О фильме: От лица главного героя Форреста Гампа, слабоумного безобидного человека с благородным и открытым сердцем, рассказывается история его необыкновенной жизни.
    Фантастическим образом превращается он в известного футболиста, героя войны, преуспевающего бизнесмена. Он становится миллиардером, но остается таким же бесхитростным, глупым и добрым. Форреста ждет постоянный успех во всем, а он любит девочку, с которой дружил в детстве, но взаимность приходит слишком поздно…



    Кодек: x264
    Качество: BDRip 1080p (by SWTYBLZ)
    Видео: 1920x802, 13800 kbps, 23,976 fps
    Аудио #1: AC-3, 6 ch, 448 kbps (Rus) - MVO Киномания / FDV
    Аудио #2: AC-3, 6 ch, 640 kbps (Rus) - MVO Позитив-Мультимедия
    Аудио #3: AC-3, 6 ch, 640 kbps (Rus) - MVO Медиа-Комплекс
    Аудио #4: AC-3, 6 ch, 384 kbps (Rus) - MVO НТВ+
    Аудио #5: AC-3, 2 ch, 192 kbps (Rus) - MVO Премьер Видео Фильм
    Аудио #6: AC-3, 2 ch, 192 kbps (Rus) - MVO СТС / РТР
    Аудио #7: AC-3, 6 ch, 448 kbps (Rus) - DVO Tycoon Studio
    Аудио #8: AC-3, 6 ch, 640 kbps (Rus) - AVO Сербин Юрий Владимирович
    Аудио #9: DTS, 6 ch, 1509 kbps (Eng)
    Субтитры: Русские, Английские



    MediaInfo
    Общее
    Уникальный идентификатор : 205229428814577079203986955374763755842 (0x9A65C00FE1EDDB52A23617DB2AA0C942)
    Полное имя : Форрест Гамп (Forrest Gump) 1994 BDRip 1080p.mkv
    Формат : Matroska
    Версия формата : Version 2
    Размер файла : 18,2 Гбайт
    Продолжительность : 2 ч. 22 м.
    Общий поток : 18,3 Мбит/сек
    Дата кодирования : UTC 2018-06-13 10:11:45
    Программа кодирования : mkvmerge v4.0.0 ("The Stars were mine") сборка от Jun 6 2010 16:18:42
    Библиотека кодирования : libebml v1.0.0 + libmatroska v1.0.0

    Видео
    Идентификатор : 1
    Формат : AVC
    Формат/Информация : Advanced Video Codec
    Профиль формата : High@L4.1
    Параметр CABAC формата : Да
    Параметр ReFrames формата : 5 кадров
    Идентификатор кодека : V_MPEG4/ISO/AVC
    Продолжительность : 2 ч. 22 м.
    Битрейт : 13,8 Мбит/сек
    Ширина : 1920 пикселей
    Высота : 802 пикселя
    Соотношение сторон : 2,40:1
    Режим частоты кадров : Постоянный
    Частота кадров : 23,976 (24000/1001) кадра/сек
    Цветовое пространство : YUV
    Субдискретизация насыщенности : 4:2:0
    Битовая глубина : 8 бит
    Тип развёртки : Прогрессивная
    Бит/(Пиксели*Кадры) : 0.373
    Размер потока : 13,7 Гбайт (75%)
    Библиотека кодирования : x264 core 148 r2748 97eaef2
    Настройки программы : cabac=1 / ref=5 / deblock=1:-1:-1 / analyse=0x3:0x133 / me=umh / subme=10 / psy=1 / psy_rd=1.00:0.15 / mixed_ref=1 / me_range=48 / chroma_me=1 / trellis=2 / 8x8dct=1 / cqm=0 / deadzone=21,11 / fast_pskip=1 / chroma_qp_offset=-3 / threads=25 / lookahead_threads=4 / sliced_threads=0 / nr=0 / decimate=0 / interlaced=0 / bluray_compat=0 / constrained_intra=0 / bframes=8 / b_pyramid=2 / b_adapt=2 / b_bias=0 / direct=3 / weightb=1 / open_gop=0 / weightp=2 / keyint=250 / keyint_min=23 / scenecut=40 / intra_refresh=0 / rc_lookahead=60 / rc=crf / mbtree=1 / crf=17.0 / qcomp=0.60 / qpmin=0 / qpmax=69 / qpstep=4 / ip_ratio=1.40 / aq=1:1.00
    Язык : English
    Default : Нет
    Forced : Нет

    Аудио #1
    Идентификатор : 2
    Формат : AC-3
    Формат/Информация : Audio Coding 3
    Расширение режима : CM (complete main)
    Параметр Endianness формата : Big
    Идентификатор кодека : A_AC3
    Продолжительность : 2 ч. 22 м.
    Вид битрейта : Постоянный
    Битрейт : 448 Кбит/сек
    Каналы : 6 каналов
    Расположение каналов : Front: L C R, Side: L R, LFE
    Частота : 48,0 КГц
    Частота кадров : 31,250 кадров/сек (1536 spf)
    Метод сжатия : С потерями
    Размер потока : 456 Мбайт (2%)
    Заголовок : MVO Киномания / FDV
    Язык : Russian
    Default : Нет
    Forced : Нет

    Аудио #2
    Идентификатор : 3
    Формат : AC-3
    Формат/Информация : Audio Coding 3
    Расширение режима : CM (complete main)
    Параметр Endianness формата : Big
    Идентификатор кодека : A_AC3
    Продолжительность : 2 ч. 22 м.
    Вид битрейта : Постоянный
    Битрейт : 640 Кбит/сек
    Каналы : 6 каналов
    Расположение каналов : Front: L C R, Side: L R, LFE
    Частота : 48,0 КГц
    Частота кадров : 31,250 кадров/сек (1536 spf)
    Метод сжатия : С потерями
    Размер потока : 651 Мбайт (3%)
    Заголовок : MVO Позитив-Мультимедия
    Язык : Russian
    Default : Нет
    Forced : Нет

    Аудио #3
    Идентификатор : 4
    Формат : AC-3
    Формат/Информация : Audio Coding 3
    Расширение режима : CM (complete main)
    Параметр Endianness формата : Big
    Идентификатор кодека : A_AC3
    Продолжительность : 2 ч. 22 м.
    Вид битрейта : Постоянный
    Битрейт : 640 Кбит/сек
    Каналы : 6 каналов
    Расположение каналов : Front: L C R, Side: L R, LFE
    Частота : 48,0 КГц
    Частота кадров : 31,250 кадров/сек (1536 spf)
    Метод сжатия : С потерями
    Размер потока : 651 Мбайт (3%)
    Заголовок : MVO Медиа-Комплекс
    Язык : Russian
    Default : Нет
    Forced : Нет

    Аудио #4
    Идентификатор : 5
    Формат : AC-3
    Формат/Информация : Audio Coding 3
    Расширение режима : CM (complete main)
    Параметр Endianness формата : Big
    Идентификатор кодека : A_AC3
    Продолжительность : 2 ч. 22 м.
    Вид битрейта : Постоянный
    Битрейт : 384 Кбит/сек
    Каналы : 6 каналов
    Расположение каналов : Front: L C R, Side: L R, LFE
    Частота : 48,0 КГц
    Частота кадров : 31,250 кадров/сек (1536 spf)
    Метод сжатия : С потерями
    Размер потока : 390 Мбайт (2%)
    Заголовок : MVO НТВ+
    Язык : Russian
    Default : Нет
    Forced : Нет

    Аудио #5
    Идентификатор : 6
    Формат : AC-3
    Формат/Информация : Audio Coding 3
    Расширение режима : CM (complete main)
    Параметр Endianness формата : Big
    Идентификатор кодека : A_AC3
    Продолжительность : 2 ч. 22 м.
    Вид битрейта : Постоянный
    Битрейт : 192 Кбит/сек
    Каналы : 2 канала
    Расположение каналов : Front: L R
    Частота : 48,0 КГц
    Частота кадров : 31,250 кадров/сек (1536 spf)
    Метод сжатия : С потерями
    Размер потока : 195 Мбайт (1%)
    Заголовок : MVO Премьер Видео Фильм
    Язык : Russian
    Default : Нет
    Forced : Нет

    Аудио #6
    Идентификатор : 7
    Формат : AC-3
    Формат/Информация : Audio Coding 3
    Расширение режима : CM (complete main)
    Параметр Endianness формата : Big
    Идентификатор кодека : A_AC3
    Продолжительность : 2 ч. 22 м.
    Вид битрейта : Постоянный
    Битрейт : 192 Кбит/сек
    Каналы : 2 канала
    Расположение каналов : Front: L R
    Частота : 48,0 КГц
    Частота кадров : 31,250 кадров/сек (1536 spf)
    Метод сжатия : С потерями
    Размер потока : 195 Мбайт (1%)
    Заголовок : MVO СТС / РТР
    Язык : Russian
    Default : Нет
    Forced : Нет

    Аудио #7
    Идентификатор : 8
    Формат : AC-3
    Формат/Информация : Audio Coding 3
    Расширение режима : CM (complete main)
    Параметр Endianness формата : Big
    Идентификатор кодека : A_AC3
    Продолжительность : 2 ч. 22 м.
    Вид битрейта : Постоянный
    Битрейт : 448 Кбит/сек
    Каналы : 6 каналов
    Расположение каналов : Front: L C R, Side: L R, LFE
    Частота : 48,0 КГц
    Частота кадров : 31,250 кадров/сек (1536 spf)
    Метод сжатия : С потерями
    Размер потока : 456 Мбайт (2%)
    Заголовок : DVO Tycoon Studio
    Язык : Russian
    Default : Нет
    Forced : Нет

    Аудио #8
    Идентификатор : 9
    Формат : AC-3
    Формат/Информация : Audio Coding 3
    Расширение режима : CM (complete main)
    Параметр Endianness формата : Big
    Идентификатор кодека : A_AC3
    Продолжительность : 2 ч. 22 м.
    Вид битрейта : Постоянный
    Битрейт : 640 Кбит/сек
    Каналы : 6 каналов
    Расположение каналов : Front: L C R, Side: L R, LFE
    Частота : 48,0 КГц
    Частота кадров : 31,250 кадров/сек (1536 spf)
    Метод сжатия : С потерями
    Размер потока : 651 Мбайт (3%)
    Заголовок : AVO Сербин Юрий Владимирович
    Язык : Russian
    Default : Нет
    Forced : Нет

    Аудио #9
    Идентификатор : 10
    Формат : AC-3
    Формат/Информация : Audio Coding 3
    Расширение режима : CM (complete main)
    Параметр Endianness формата : Big
    Идентификатор кодека : A_AC3
    Продолжительность : 2 ч. 22 м.
    Вид битрейта : Постоянный
    Битрейт : 640 Кбит/сек
    Каналы : 6 каналов
    Расположение каналов : Front: L C R, Side: L R, LFE
    Частота : 48,0 КГц
    Частота кадров : 31,250 кадров/сек (1536 spf)
    Метод сжатия : С потерями
    Размер потока : 651 Мбайт (3%)
    Язык : English
    Default : Нет
    Forced : Нет

    Текст #1
    Идентификатор : 11
    Формат : UTF-8
    Идентификатор кодека : S_TEXT/UTF8
    Идентификатор кодека/Информация : UTF-8 Plain Text
    Заголовок : Позитив
    Язык : Russian
    Default : Нет
    Forced : Нет

    Текст #2
    Идентификатор : 12
    Формат : UTF-8
    Идентификатор кодека : S_TEXT/UTF8
    Идентификатор кодека/Информация : UTF-8 Plain Text
    Язык : Russian
    Default : Нет
    Forced : Нет

    Текст #3
    Идентификатор : 13
    Формат : UTF-8
    Идентификатор кодека : S_TEXT/UTF8
    Идентификатор кодека/Информация : UTF-8 Plain Text
    Язык : English
    Default : Нет
    Forced : Нет
    Свернуть


    [img]https://b.radikal.ru/b04/1806/ac/a96871a50876.jpg[/img][img]https://b.radikal.ru/b29/1806/bf/c2174443ac94.jpg[/img][img]https://d.radikal.ru/d26/1806/b0/8499830d20de.jpg[/img][img]https://b.radikal.ru/b17/1806/a2/aa7c869425e2.jpg[/img]
    [img]https://b.radikal.ru/b30/1806/e0/7cadb9856bc0.jpg[/img][img]https://c.radikal.ru/c29/1806/73/0db58e48b712.jpg[/img][img]https://c.radikal.ru/c12/1806/fe/386e2530f94c.jpg[/img][img]https://b.radikal.ru/b31/1806/5c/95d05dc152cb.jpg[/img]
    Похожие раздачи Искать похожие
    Инструкция по скачиванию
     1  Качаем uTorrent версии 2.0 и выше
     2  После установки, жмем выше под постером на ссылку Скачать [MediaGet] или Скачать .torrent
     3  Открываем скачанный файл через соответствующий клиент: MediaGet или uTorrent
     4  Ждем пока подключатся участники
     5  Качаем
    Комментарии о  Форрест Гамп / Forrest Gump | BDRip 1080p 
    Ближайшее в кино
    Вверх