• Игры для PS4
  • Игры для PS3
  • Игры для XBOX360
  • Игры для PC
  • Игры для PS2
  • Игры для PSP
  • Для телефонов
  • Музыка
  • Книги / Журналы
  • Обои
  • Опрос
    Откуда Вы о нас узнали?
      0
    • От знакомых2,1,false,300,full
    • Из социальных сетей2,2,false,300,full
    • Из поисковых систем2,3,false,300,full
    • Другое2,4,false,300,full
    Статистика
    Всего онлайн -
    Гостей -
    Пользователей -
    Короли трекера
    
    Благодарности () Закрыть
    Информация о фильме
    Название: Парень как Джэйк
    Оригинальное название: A Kid Like Jake
    Год выхода: 2018
    Жанр: Драма
    Режиссер: Сайлэс Ховард
    В ролях: Приянка Чопра, Энн Дауд, Клер Дэйнс, Шонетт Рене Уилсон, Джим Парсонс, Октавия Спенсер, Эми Ландекер, Аасиф Мандви, Джулия Тейлор Росс, Лев Джеймс Дэвис и другие
    О фильме:
    Четырёхлетний Джэйк — особенный ребёнок. Во-первых, он развит не по годам, а во-вторых, ему нравятся наряды принцесс. Это может стать «визитной карточкой» мальчика при поступлении в престижный детский сад, но чрезмерное рвение родителей угрожает семейному счастью.



    Страна: США, Bankside Films, Burn Later Productions, Double Nickel Entertainment
    Продолжительность: 01:29:43
    Перевод: Любительский (двухголосый закадровый) | HiWay Grope

    Файл
    Кодек: XviD
    Качество: WEBRip
    Видео: 720x384, 25 fps, ~1255 kbps, 0.18 bit/pixel
    Звук:
    Аудио rus: AC3, 48 kHz, 6 ch, 384 Kbps
    Субтитры: отсутствуют

    Реклама: присутствует

    Семпл

    MediaInfo

    General
    Complete name                            : E:A.Kid.Like.Jake.2018.WEBRip.HiWayGropeA.Kid.Like.Jake.2018.WEBRip.HiWayGrope.avi
    Format                                   : AVI
    Format/Info                              : Audio Video Interleave
    File size                                : 1.03 GiB
    Duration                                 : 1h 29mn
    Overall bit rate                         : 1 649 Kbps
    Writing application                      : VirtualDubMod 1.5.10.2 (build 2540/release)
    Writing library                          : VirtualDubMod build 2540/release

    Video
    ID                                       : 0
    Format                                   : xvid
    Codec ID                                 : xvid
    Duration                                 : 1h 29mn
    Bit rate                                 : 1 255 Kbps
    Width                                    : 720 pixels
    Height                                   : 384 pixels
    Display aspect ratio                     : 1.85:1
    Frame rate                               : 25.000 fps
    Bits/(Pixel*Frame)                       : 0.182
    Stream size                              : 806 MiB (76%)

    Audio
    ID                                       : 1
    Format                                   : AC-3
    Format/Info                              : Audio Coding 3
    Mode extension                           : CM (complete main)
    Format settings, Endianness              : Big
    Codec ID                                 : 2000
    Duration                                 : 1h 29mn
    Bit rate mode                            : Constant
    Bit rate                                 : 384 Kbps
    Channel(s)                               : 6 channels
    Channel positions                        : Front: L C R, Side: L R, LFE
    Sampling rate                            : 48.0 KHz
    Frame rate                               : 31.250 fps (1536 spf)
    Compression mode                         : Lossy
    Stream size                              : 246 MiB (23%)
    Alignment                                : Split accross interleaves
    Interleave, duration                     : 40 ms (1.00 video frame)
    Interleave, preload duration             : 500 ms

    Свернуть


    Инструкция по скачиванию
     1  Качаем uTorrent версии 2.0 и выше
     2  После установки, жмем выше под постером на ссылку Скачать [MediaGet] или Скачать .torrent
     3  Открываем скачанный файл через соответствующий клиент: MediaGet или uTorrent
     4  Ждем пока подключатся участники
     5  Качаем
    Комментарии о  Парень как Джэйк / A Kid Like Jake | WEBRip 
    Ближайшее в кино
    Вверх