• Игры для PS4
  • Игры для PS3
  • Игры для XBOX360
  • Игры для PC
  • Игры для PS2
  • Игры для PSP
  • Для телефонов
  • Музыка
  • Книги/Журналы
  • Обои
  •  
    Опрос
    Откуда Вы о нас узнали?
      0
    • От знакомых2,1,false,300,full
    • Из социальных сетей2,2,false,300,full
    • Из поисковых систем2,3,false,300,full
    • Другое2,4,false,300,full
    Статистика
    Загрузка...
    Ночные игры / Game Night | BDRemux 1080p
    Статус  Проверено
    В закладки
    Модератор: Max

    Ночные игры / Game Night | BDRemux 1080p [Фильмы 2018] скачать торрентом/torrent бесплатно

    Год выхода
    Язык
    Закачал
    Аноним | 13 июня в 23ч 18м 03с
    Раздел
    Отзывов
    0
    Раздают: 51 Качают: 5 Скачали: 637 Размер: 23.83 GB
    Инфо о раздаче | Благодарности |
    0/5
    0
    0 5 0
    Поддержи нас — расскажи друзьям!
    Orbitum
    Новый интернет-браузер Быстрее загружает сайты Экономит интернет—трафик Меняет оформление страницы ВК Блокирует всю рекламу на сайтах Загружает торренты как

    µTorrent

    клиент
    Объеденяет все твои чаты из соц. сетей в один Проигрывает твою музыку не заходя во ВКонтакте
    Скачать и многое другое... Подробности на сайте производителя
    Информация о фильме
    Название: Ночные игры
    Оригинальное название: Game Night
    Год выхода: 2018
    Жанр: Триллер, комедия, криминал, детектив
    Режиссер: Джон Фрэнсис Дейли, Джонатан М. Голдштейн
    В ролях: Джейсон Бейтмен, Рэйчел МакАдамс, Кайл Чандлер, Шэрон Хорган, Билли Магнуссен, Ламорн Моррис, Кайли Банбери, Джесси Племонс, Майкл С. Холл, Дэнни Хьюстон



    О фильме: История Макса и Энни, которые вместе с другими парами каждую неделю устраивают так называемые «ночные игры». И вот однажды харизматичный брат Макса Брукс организовывает вечер по разгадыванию «убийственного» квеста с «ряжеными» головорезами и агентами ФБР. Получается, похищение Брукса в тот вечер - это розыгрыш... или нет?

    Страна: США
    Студия: Aggregate Films, Davis Entertainment, New Line Cinema
    Продолжительность: 01:40:05
    Перевод: Дублированный | Лицензия

    Качество: BDRemux 1080p
    Видео: MPEG-4 AVC, 1920x1080, 29.8 Mbit/s, 23.976 fps
    Звук:
    Аудио #01: 48 kHz, AC3, 5.1, 640 Kbps | Дублированный | RUS |[img]http://lostpix.com/img/2016-04/26/ecarul7mj2gcrjkf30af8u4tk.gif[/img]
    Аудио #02: 48 kHz, DTS-HD MA, 5.1, 3596 Kbps | Оригинал |  ENG |[img]http://lostpix.com/img/2016-09/30/0icucyo5gq0qmwlibabcgmhiw.gif[/img]
    Субтитры: Русские (forced, full), английские

    [img]http://lostpix.com/img/2018-05/12/5pu71jk7lg32gjltbt32ms2vx.png[/img][img]http://lostpix.com/img/2018-05/12/kubeawb16ka2whtno4z85iqxa.png[/img][img]http://lostpix.com/img/2018-05/12/4hklbmhn17zk65yfef0aplkag.png[/img][img]http://lostpix.com/img/2018-05/12/a0kd3a80kiaxqonmdyi9mndrm.png[/img][img]http://lostpix.com/img/2018-05/12/v2czkjkcapl40kjhyqxqpc7mh.png[/img]

    MI
    General
    Unique ID                   : 72899412839253891739642674936695901543 (0x36D7EA8CD6DA15A6ADB599CEAD5A4D67)
    Complete name               : D:Video111Game.Night.2018.LIc.BDREMUX.1080p.ExKinoRay.mkv
    Format                      : Matroska
    Format version              : Version 4 / Version 2
    File size                   : 23.8 GiB
    Duration                    : 1 h 40 min
    Overall bit rate mode       : Variable
    Overall bit rate            : 34.1 Mb/s
    Movie name                  : Game Night 2018 from ExKinoRay
    Encoded date                : UTC 2018-06-13 19:50:50
    Writing application         : mkvmerge v23.0.0 ("The Bride Said No") 64-bit
    Writing library             : libebml v1.3.6 + libmatroska v1.4.9

    Video
    ID                          : 1
    Format                      : AVC
    Format/Info                 : Advanced Video Codec
    Format profile              : High@L4.1
    Format settings             : CABAC / 4 Ref Frames
    Format settings, CABAC      : Yes
    Format settings, ReFrames   : 4 frames
    Codec ID                    : V_MPEG4/ISO/AVC
    Duration                    : 1 h 40 min
    Bit rate mode               : Variable
    Bit rate                    : 29.8 Mb/s
    Maximum bit rate            : 34.0 Mb/s
    Width                       : 1 920 pixels
    Height                      : 1 080 pixels
    Display aspect ratio        : 16:9
    Frame rate mode             : Constant
    Frame rate                  : 23.976 (24000/1001) FPS
    Color space                 : YUV
    Chroma subsampling          : 4:2:0
    Bit depth                   : 8 bits
    Scan type                   : Progressive
    Bits/(Pixel*Frame)          : 0.600
    Stream size                 : 20.9 GiB (88%)
    Language                    : English
    Default                     : Yes
    Forced                      : No

    Audio #1
    ID                          : 2
    Format                      : AC-3
    Format/Info                 : Audio Coding 3
    Codec ID                    : A_AC3
    Duration                    : 1 h 40 min
    Bit rate mode               : Constant
    Bit rate                    : 640 kb/s
    Channel(s)                  : 6 channels
    Channel positions           : Front: L C R, Side: L R, LFE
    Sampling rate               : 48.0 kHz
    Frame rate                  : 31.250 FPS (1536 SPF)
    Bit depth                   : 16 bits
    Compression mode            : Lossy
    Stream size                 : 458 MiB (2%)
    Title                       : Dub [License]
    Language                    : Russian
    Service kind                : Complete Main
    Default                     : Yes
    Forced                      : Yes

    Audio #2
    ID                          : 3
    Format                      : DTS
    Format/Info                 : Digital Theater Systems
    Format profile              : MA / Core
    Codec ID                    : A_DTS
    Duration                    : 1 h 40 min
    Bit rate mode               : Variable / Constant
    Bit rate                    : 3 596 kb/s / 1 509 kb/s
    Channel(s)                  : 6 channels
    Channel positions           : Front: L C R, Side: L R, LFE
    Sampling rate               : 48.0 kHz
    Frame rate                  : 93.750 FPS (512 SPF)
    Bit depth                   : 24 bits
    Compression mode            : Lossless / Lossy
    Stream size                 : 2.51 GiB (11%)
    Title                       : Original
    Language                    : English
    Default                     : No
    Forced                      : No

    Text #1
    ID                          : 4
    Format                      : UTF-8
    Codec ID                    : S_TEXT/UTF8
    Codec ID/Info               : UTF-8 Plain Text
    Duration                    : 1 h 39 min
    Bit rate                    : 4 b/s
    Count of elements           : 61
    Stream size                 : 3.31 KiB (0%)
    Title                       : Forced
    Language                    : Russian
    Default                     : Yes
    Forced                      : Yes

    Text #2
    ID                          : 5
    Format                      : UTF-8
    Codec ID                    : S_TEXT/UTF8
    Codec ID/Info               : UTF-8 Plain Text
    Duration                    : 1 h 39 min
    Bit rate                    : 135 b/s
    Count of elements           : 2086
    Stream size                 : 98.7 KiB (0%)
    Title                       : Full
    Language                    : Russian
    Default                     : No
    Forced                      : No

    Text #3
    ID                          : 6
    Format                      : UTF-8
    Codec ID                    : S_TEXT/UTF8
    Codec ID/Info               : UTF-8 Plain Text
    Duration                    : 1 h 39 min
    Bit rate                    : 92 b/s
    Count of elements           : 2245
    Stream size                 : 67.3 KiB (0%)
    Title                       : Full
    Language                    : English
    Default                     : No
    Forced                      : No

    Text #4
    ID                          : 7
    Format                      : UTF-8
    Codec ID                    : S_TEXT/UTF8
    Codec ID/Info               : UTF-8 Plain Text
    Duration                    : 1 h 39 min
    Bit rate                    : 99 b/s
    Count of elements           : 2205
    Stream size                 : 72.3 KiB (0%)
    Title                       : SDH
    Language                    : English
    Default                     : No
    Forced                      : No

    Menu
    00:00:00.000                : en:00:00:00.000
    00:10:35.093                : en:00:10:35.093
    00:18:37.116                : en:00:18:37.116
    00:32:24.860                : en:00:32:24.860
    00:42:40.308                : en:00:42:40.308
    00:52:27.353                : en:00:52:27.353
    01:02:01.301                : en:01:02:01.301
    01:11:50.932                : en:01:11:50.932
    01:22:36.743                : en:01:22:36.743
    01:32:54.903                : en:01:32:54.903


    Подпишись на меня, кликни по картинке > : [img]http://img12.lostpic.net/2018/03/09/13af6981458d1d0b6a9d5e5286e0688e.gif[/img]

    [img]http://lostpix.com/img/2017-03/22/pa3kns75lpl0e564ik1il8ow9.gif[/img]
    Еще похожие »

    Как скачать?
    1. Качаем UTorrent версии 2.0 и выше отсюда
    2. После установки, жмем на ссылку Скачать торрент.
    3. Открываем его через utorrent.
    4. Ждем пока подключатся участники.
    5. Качаем.


    Комментарии о Ночные игры / Game Night | BDRemux 1080p
    Добавлять комментарии могут только зарегистрированные пользователи

    Зарегистрироваться или Войти


    Ближайшее в кино
    • МУЛЬТ в кино. Выпуск №77. Команда мечты дата выхода 23 июня 2018МУЛЬТ в кино. Выпуск №77. Команда мечты
      Дата выхода: 23 июня 2018
    • 1162775|Кто украл Banksy|25 июня 2018|200|300Кто украл Banksy
      Дата выхода: 25 июня 2018
    • 1031219|План побега 2|28 июня 2018|200|300План побега 2
      Дата выхода: 28 июня 2018
    • 938461|Убийца 2. Против всех|28 июня 2018|200|300Убийца 2. Против всех
      Дата выхода: 28 июня 2018
    • 912012|Распрекрасный принц|28 июня 2018|200|300Распрекрасный принц
      Дата выхода: 28 июня 2018
    • 1015040|Во власти стихии|28 июня 2018|200|300Во власти стихии
      Дата выхода: 28 июня 2018
    • 759874|Ты водишь!|28 июня 2018|200|300Ты водишь!
      Дата выхода: 28 июня 2018
    • 1077873|Книжный клуб|28 июня 2018|200|300Книжный клуб
      Дата выхода: 28 июня 2018
    • 1047708|Инсомния|28 июня 2018|200|300Инсомния
      Дата выхода: 28 июня 2018
    • 1026748|Джим Пуговка и машинист Лукас|28 июня 2018|200|300Джим Пуговка и машинист Лукас
      Дата выхода: 28 июня 2018
    • 1038941|Осторожно: Грамп!|28 июня 2018|200|300Осторожно: Грамп!
      Дата выхода: 28 июня 2018
    • 977767|50 весенних дней|28 июня 2018|200|30050 весенних дней
      Дата выхода: 28 июня 2018
    • 1162806|Идеальный муж|4 июля 2018|200|300Идеальный муж
      Дата выхода: 4 июля 2018
    • 935940|Человек-муравей и Оса|5 июля 2018|200|300Человек-муравей и Оса
      Дата выхода: 5 июля 2018
    • 977435|Невидимка|5 июля 2018|200|300Невидимка
      Дата выхода: 5 июля 2018
    Вверх