• Игры для PS4
  • Игры для PS3
  • Игры для XBOX360
  • Игры для PC
  • Игры для PS2
  • Игры для PSP
  • Для телефонов
  • Музыка
  • Книги/Журналы
  • Обои
  •  
    Опрос
    Удобен ли сайт в использовании?
      0
    • Очень удобен, все понятно1,1,false,300,full
    • Удобен1,2,false,300,full
    • Средне1,3,false,300,full
    • Неудобен, трудно ориентироваться1,4,false,300,full
    • Совсем неудобен1,5,false,300,full
    Статистика
    Загрузка...
    Страж Дьявола / Diablo Guardián [Сезон 01] | WEBRip 720p
    Статус  Проверено
    В закладки
    Модератор: Max

    Страж Дьявола / Diablo Guardián [Сезон 01] | WEBRip 720p [Сериалы 2018] скачать торрентом/torrent бесплатно

    Год выхода
    Категории
    Язык
    Закачал
    Аноним | 14 июня в 09ч 13м 50с
    Раздел
    Отзывов
    0
    Раздают: 0 Качают: 0 Скачали: 0 Размер: 8.94 GB
    Инфо о раздаче | Благодарности |
    0/5
    0
    0 5 0
    Поддержи нас — расскажи друзьям!
    Orbitum
    Новый интернет-браузер Быстрее загружает сайты Экономит интернет—трафик Меняет оформление страницы ВК Блокирует всю рекламу на сайтах Загружает торренты как

    µTorrent

    клиент
    Объеденяет все твои чаты из соц. сетей в один Проигрывает твою музыку не заходя во ВКонтакте
    Скачать и многое другое... Подробности на сайте производителя
    Информация о фильме
    Год выхода: 2018
    Наименование: Страж Дьявола
    Оригинальное наименование: Diablo Guardián
    Произведено: Мексика
    Жанр:  боевик, драма
    Режиссер постановщик: Себастьян Сильва, Хироми Камата, Марк Вихиль
    В главных ролях: Паулина Гайтан, Adrian Ladron, Андрес Альмейда, К.С. Клайд, Леонардо Ортисгрис, Митчелл Слаггерт, Педро Алонсо, Энрике Арреола, Армандо Эспития, Лис Гальярдо

    О фильме: Грандиозная драма о тревожной истории молодой девушки из Мексики, которая недовольна своей жизнью. В момент отчаяния она крадет 100 000 долларов у своих родителей и пересекает границу, чтобы добраться до Нью-Йорка в надежде на жизнь своей мечты, но вместо этого сталкивается с суровой реальностью.



    Файл
    Качество:  WEBRip 720p
    Видео данные: MKV, 1280x720 (16:9), 23.976 fps, 3035 Кбит/с
    Аудио данные: AC3, 2 ch, 192 Кбит/с
    Перевод: Любительский многоголосый (GreenРай Studio)
    Продолжительность: 10 x 00:41:00

    Медиаинфо
    General
    Unique ID                                : 173328139832749021963752328787180022397 (0x8265C9149EAA2BFA8D4E00187F766A7D)
    Complete name                            : E:ГРИНРАЙDiablo.Guardian.S01.WEB-DL.720pDiablo.Guardian.S01E01.WEB-DL.720p.mkv
    Format                                   : Matroska
    Format version                           : Version 2
    File size                                : 984 MiB
    Duration                                 : 41 min 46 s
    Overall bit rate                         : 3 292 kb/s
    Encoded date                             : UTC 2018-05-29 12:12:39
    Writing application                      : mkvmerge v7.8.0 ("River Man") 32bit built on Apr  3 2015 12:11:22
    Writing library                          : libebml v1.3.1 + libmatroska v1.4.2

    Video
    ID                                       : 1
    Format                                   : AVC
    Format/Info                              : Advanced Video Codec
    Format profile                           : High@L3.1
    Format settings                          : CABAC / 4 Ref Frames
    Format settings, CABAC                   : Yes
    Format settings, RefFrames               : 4 frames
    Codec ID                                 : V_MPEG4/ISO/AVC
    Duration                                 : 41 min 46 s
    Bit rate                                 : 3 035 kb/s
    Width                                    : 1 280 pixels
    Height                                   : 720 pixels
    Display aspect ratio                     : 16:9
    Frame rate mode                          : Constant
    Frame rate                               : 23.976 FPS
    Color space                              : YUV
    Chroma subsampling                       : 4:2:0
    Bit depth                                : 8 bits
    Scan type                                : Progressive
    Bits/(Pixel*Frame)                       : 0.137
    Stream size                              : 907 MiB (92%)
    Writing library                          : x264 core 146 r2538 121396c
    Encoding settings                        : cabac=1 / ref=1 / deblock=1:0:0 / analyse=0x3:0x113 / me=hex / subme=2 / psy=1 / psy_rd=1.00:0.00 / mixed_ref=0 / me_range=16 / chroma_me=1 / trellis=0 / 8x8dct=1 / cqm=0 / deadzone=21,11 / fast_pskip=1 / chroma_qp_offset=0 / threads=18 / lookahead_threads=5 / sliced_threads=0 / nr=0 / decimate=1 / interlaced=0 / bluray_compat=0 / constrained_intra=0 / bframes=3 / b_pyramid=2 / b_adapt=1 / b_bias=0 / direct=1 / weightb=1 / open_gop=0 / weightp=1 / keyint=250 / keyint_min=23 / scenecut=40 / intra_refresh=0 / rc_lookahead=10 / rc=crf / mbtree=1 / crf=16.8 / qcomp=0.60 / qpmin=0 / qpmax=69 / qpstep=4 / ip_ratio=1.40 / aq=1:1.00
    Default                                  : Yes
    Forced                                   : No

    Audio
    ID                                       : 2
    Format                                   : AC-3
    Format/Info                              : Audio Coding 3
    Codec ID                                 : A_AC3
    Duration                                 : 41 min 46 s
    Bit rate mode                            : Constant
    Bit rate                                 : 192 kb/s
    Channel(s)                               : 2 channels
    Channel positions                        : Front: L R
    Sampling rate                            : 48.0 kHz
    Frame rate                               : 31.250 FPS (1536 SPF)
    Bit depth                                : 16 bits
    Compression mode                         : Lossy
    Stream size                              : 57.4 MiB (6%)
    Service kind                             : Complete Main
    Default                                  : Yes
    Forced                                   : No


    Внимание, имеется  видео и аудио реклама от спонсора показа

    Еще похожие »

    Как скачать?
    1. Качаем UTorrent версии 2.0 и выше отсюда
    2. После установки, жмем на ссылку Скачать торрент.
    3. Открываем его через utorrent.
    4. Ждем пока подключатся участники.
    5. Качаем.


    Комментарии о Страж Дьявола / Diablo Guardián [Сезон 01] | WEBRip 720p
    Добавлять комментарии могут только зарегистрированные пользователи

    Зарегистрироваться или Войти


    Ближайшее в кино
    • Смешная девчонка дата выхода 24 октября 2018Смешная девчонка
      Дата выхода: 24 октября 2018
    • 843790|Репродукция|25 октября 2018|200|300Репродукция
      Дата выхода: 25 октября 2018
    • 782103|Только не они|25 октября 2018|200|300Только не они
      Дата выхода: 25 октября 2018
    • 1007496|Несокрушимый|25 октября 2018|200|300Несокрушимый
      Дата выхода: 25 октября 2018
    • 1101939|На границе миров|25 октября 2018|200|300На границе миров
      Дата выхода: 25 октября 2018
    • 898875|Кукловод|25 октября 2018|200|300Кукловод
      Дата выхода: 25 октября 2018
    • 1176159|Человек, который удивил всех|25 октября 2018|200|300Человек, который удивил всех
      Дата выхода: 25 октября 2018
    • 1049082|Ведьмы|25 октября 2018|200|300Ведьмы
      Дата выхода: 25 октября 2018
    • 1182699|Лоро|25 октября 2018|200|300Лоро
      Дата выхода: 25 октября 2018
    • 1032308|Как прогулять школу с пользой|25 октября 2018|200|300Как прогулять школу с пользой
      Дата выхода: 25 октября 2018
    • 1118074|Два билета домой|25 октября 2018|200|300Два билета домой
      Дата выхода: 25 октября 2018
    • 1044099|Глубокие реки|25 октября 2018|200|300Глубокие реки
      Дата выхода: 25 октября 2018
    • 1200028|МУЛЬТ в кино. Выпуск №83. В центре внимания!|27 октября 2018|200|300МУЛЬТ в кино. Выпуск №83. В центре внимания!
      Дата выхода: 27 октября 2018
    • 568289|Богемская рапсодия|1 ноября 2018|200|300Богемская рапсодия
      Дата выхода: 1 ноября 2018
    • 589787|Хантер Киллер|1 ноября 2018|200|300Хантер Киллер
      Дата выхода: 1 ноября 2018
    Вверх