• Игры для PS4
  • Игры для PS3
  • Игры для XBOX360
  • Игры для PC
  • Игры для PS2
  • Игры для PSP
  • Для телефонов
  • Музыка
  • Книги / Журналы
  • Обои
  • Опрос
    Откуда Вы о нас узнали?
      0
    • От знакомых2,1,false,300,full
    • Из социальных сетей2,2,false,300,full
    • Из поисковых систем2,3,false,300,full
    • Другое2,4,false,300,full
    Статистика
    Всего онлайн -
    Гостей -
    Пользователей -
    Короли трекера
    Благодарности () Закрыть
    Информация о фильме
    Название: Детективное агенство Лейтон: Загадочные расследования Катриэль Лейтон!
    Оригинальное название: Layton Mystery Tanteisha: Katri no Nazotoki File
    Год выхода: 2018
    Жанр:  Приключения, детектив, семейный
    Режиссер: Мицунака Сусуму

    Описание:
    Дочь профессора Лейтона, Катриэль Лейтон, управляет детективным агентством Лейтона вместе с говорящей собакой Шерл и своим помощником Ноа. Изначально она начала работу надеясь отыскать своего отца, Хершела Лейтона, который внезапно исчез, но настолько талантливо расследует загадочные дела, что прославилась и теперь к ней за помощью обращается весь Лондон.

    Доп. информация:

    Серия состоит из:
    #1 Профессор Лейтон и Дива вечности - п/ф, адаптация игры, 2009
    #2 Layton Mystery Tanteisha: Katri no Nazotoki File - ТВ (50 эп.), адаптация игры, 2018

    [img]http://i053.radikal.ru/1604/64/a35e706ef334.gif[/img]
    Релиз GSGroup

    Страна: Япония
    Студия: LidenFilms
    Продолжительность: ТВ (50 эп.) 00:24:00
    Перевод: Любительский одноголосый (Persona99)
    Субтитры: русские перевод JohnnyZB, risens.team

    Качество: HDTVRip 720p [Leopard-Raws]
    Формат видео: mp4
    Видео: AVC 1280x720, 23.976 fps, ~1219 Kbps, 8 bits.
    Аудио 1: AAC 48 КГц; 192 Кбит/сек , 2.0 Язык Русский (в составе контейнера) ; Озвучка: Любительский одноголосый (Persona99)
    Аудио 2: AAC 48 КГц; 192 Кбит/сек , 2.0 оригинал (Японский)
    Семпл

    Подробные тех. данные
    General
    Complete name                            : Layton Mystery Tanteisha Katri no Nazotoki File TVLayton Mystery Tanteisha 01 [Persona99](1280x720 x264 AAC).rus.jpn.mp4
    Format                                   : MPEG-4
    Format profile                           : Base Media
    Codec ID                                 : isom
    File size                                : 274 MiB
    Duration                                 : 23mn 50s
    Overall bit rate mode                    : Variable
    Overall bit rate                         : 1 609 Kbps
    Encoded date                             : UTC 2018-06-12 08:20:56
    Tagged date                              : UTC 2018-06-12 08:20:56
    Writing application                      : Yamb 2.1.0.0 [http://yamb.unite-video.com]

    Video
    ID                                       : 1
    Format                                   : AVC
    Format/Info                              : Advanced Video Codec
    Format profile                           : High@L4.1
    Format settings, CABAC                   : Yes
    Format settings, ReFrames                : 4 frames
    Codec ID                                 : avc1
    Codec ID/Info                            : Advanced Video Coding
    Duration                                 : 23mn 49s
    Bit rate                                 : 1 219 Kbps
    Maximum bit rate                         : 12.6 Mbps
    Width                                    : 1 280 pixels
    Height                                   : 720 pixels
    Display aspect ratio                     : 16:9
    Frame rate mode                          : Constant
    Frame rate                               : 23.976 fps
    Color space                              : YUV
    Chroma subsampling                       : 4:2:0
    Bit depth                                : 8 bits
    Scan type                                : Progressive
    Bits/(Pixel*Frame)                       : 0.055
    Stream size                              : 208 MiB (76%)
    Title                                    : [Leopard-Raws]
    Writing library                          : x264 core 129 r2245+729M 1a52e03
    Encoding settings                        : cabac=1 / ref=4 / deblock=1:1:-1 / analyse=0x3:0x113 / me=umh / subme=9 / psy=1 / fade_compensate=0.00 / psy_rd=1.00:0.00 / mixed_ref=1 / me_range=24 / chroma_me=1 / trellis=2 / 8x8dct=1 / cqm=0 / deadzone=21,11 / fast_pskip=1 / chroma_qp_offset=-2 / threads=8 / lookahead_threads=1 / sliced_threads=0 / nr=0 / decimate=1 / interlaced=0 / bluray_compat=0 / constrained_intra=0 / fgo=0 / bframes=9 / b_pyramid=2 / b_adapt=2 / b_bias=0 / direct=1 / weightb=1 / open_gop=0 / weightp=2 / keyint=240 / keyint_min=24 / scenecut=40 / intra_refresh=0 / rc=crf / mbtree=0 / crf=18.5 / qcomp=0.72 / qpmin=0 / qpmax=69 / qpstep=4 / ip_ratio=1.40 / pb_ratio=1.30 / aq=1:0.85
    Encoded date                             : UTC 2018-04-08 18:41:29
    Tagged date                              : UTC 2018-06-12 08:20:59
    Color range                              : Limited
    Color primaries                          : BT.709
    Transfer characteristics                 : BT.709
    Matrix coefficients                      : BT.709

    Audio #1
    ID                                       : 2
    Format                                   : AAC
    Format/Info                              : Advanced Audio Codec
    Format profile                           : LC
    Codec ID                                 : 40
    Duration                                 : 23mn 50s
    Bit rate mode                            : Variable
    Bit rate                                 : 192 Kbps
    Maximum bit rate                         : 200 Kbps
    Channel(s)                               : 2 channels
    Channel positions                        : Front: L R
    Sampling rate                            : 48.0 KHz
    Compression mode                         : Lossy
    Stream size                              : 32.7 MiB (12%)
    Title                                    : Persona99
    Language                                 : Russian
    Encoded date                             : UTC 2018-06-12 08:20:59
    Tagged date                              : UTC 2018-06-12 08:20:59

    Audio #2
    ID                                       : 3
    Format                                   : AAC
    Format/Info                              : Advanced Audio Codec
    Format profile                           : LC
    Codec ID                                 : 40
    Duration                                 : 23mn 50s
    Bit rate mode                            : Variable
    Bit rate                                 : 192 Kbps
    Maximum bit rate                         : 223 Kbps
    Channel(s)                               : 2 channels
    Channel positions                        : Front: L R
    Sampling rate                            : 48.0 KHz
    Compression mode                         : Lossy
    Stream size                              : 32.7 MiB (12%)
    Language                                 : Japanese
    Encoded date                             : UTC 2018-06-12 08:20:59
    Tagged date                              : UTC 2018-06-12 08:20:59
    Свернуть


    Похожие раздачи Искать похожие
    Инструкция по скачиванию
     1  Качаем uTorrent версии 2.0 и выше
     2  После установки, жмем выше под постером на ссылку Скачать [MediaGet] или Скачать .torrent
     3  Открываем скачанный файл через соответствующий клиент: MediaGet или uTorrent
     4  Ждем пока подключатся участники
     5  Качаем
    Комментарии о  Детективное агенство Лейтон / Layton Mystery Tanteisha: Katri no Nazotoki File [Серии 01-09 из 50] | HDTVRip 720p 
    Ближайшее в кино
    Вверх