• Игры для PS4
  • Игры для PS3
  • Игры для XBOX360
  • Игры для PC
  • Игры для PS2
  • Игры для PSP
  • Для телефонов
  • Музыка
  • Книги / Журналы
  • Обои
  • Опрос
    Удобен ли сайт в использовании?
      0
    • Очень удобен, все понятно1,1,false,300,full
    • Удобен1,2,false,300,full
    • Средне1,3,false,300,full
    • Неудобен, трудно ориентироваться1,4,false,300,full
    • Совсем неудобен1,5,false,300,full
    Статистика
    Всего онлайн -
    Гостей -
    Пользователей -
    Короли трекера
    Благодарности () Закрыть
    Страна: СССР
    Производство: Киностудия им. М. Горького

    Жанр:  военный
    Год выпуска: 1959
    Продолжительность: 01:34:19

    Перевод: Не требуется
    Cубтитры: нет
    Оригинальная аудиодорожка: русский

    Режиссер: Илья Гурин

    В ролях:
    Василий Шукшин, Елена Добронравова, Харийс Лиепиньш, Павел Усовниченко, Степан Крылов, Валентина Беляева, Аркадий Трусов, Сюй Сяо-Чжун, Я. Пехура, Б. Штепанек, Михаил Зимин, Валентин Грачёв, Анатолий Юшко, Александр Толстых, Пётр Вишняков, Виктор Кольцов (Кутаков), Ольга Жизнева, Михаил Козаков, Евгений Кузнецов, Александр Шатов, Сергей Папов, Галикс Колчицкий, Алексей Краснопольский...

    Описание:
    Зимой 1919 года к сибирским большевикам приезжает из Москвы связная Надя (Елена Добронравова). Она передаёт обращение Ленина: любой ценой спасти находящийся в Омске золотой запас России, помешать Колчаку вывезти его за границу. Боевая группа выработала смелый, но рискованный план. Осуществление его было возложено на венгра Иштвана (Харри Лиепиньш) и рабочего Андрея Низовцева (Василий Шукшин).

    [img]http://i100.fastpic.ru/big/2018/0213/37/6e0f79fc8d139285e4a330114475d937.png[/img]
    [img]http://new-team.org/images/sample_video.png[/img]

    Источник: DVD5 R5
    Качество видео: DVDRip
    Формат видео: AVI

    Видео: 704x528 (4:3), 25 fps, XviD ~ 1823 kbps avg, 0.196 bit/pixel
    Аудио: 48 kHz, Dolby Digital AC3 5.1, 384 kbps

    MediaInfo

    Общее
    Полное имя                               : Zolotoy.yeshelon.1959.DVDRip_[New-team]_by_AVP_Studio.avi
    Формат                                   : AVI
    Формат/Информация                        : Audio Video Interleave
    Размер файла                             : 1,46 Гбайт
    Продолжительность                        : 1 ч. 34 м.
    Общий поток                              : 2216 Кбит/сек
    Программа кодирования                    : VirtualDubMod 1.5.10.3 | www.virtualdub-fr.org || (build 2550/release)
    Библиотека кодирования                   : VirtualDubMod build 2550/release

    Видео
    Идентификатор                            : 0
    Формат                                   : MPEG-4 Visual
    Профиль формата                          : Advanced Simple@L5
    Настройки формата                        : BVOP1 / Custom Matrix
    Параметр BVOP формата                    : 1
    Параметр QPel формата                    : Нет
    Параметр GMC формата                     : Без точки перехода
    Параметр матрицы формата                 : Выборочная
    Идентификатор кодека                     : XVID
    Идентификатор кодека/Подсказка           : XviD
    Продолжительность                        : 1 ч. 34 м.
    Битрейт                                  : 1823 Кбит/сек
    Ширина                                   : 704 пикселя
    Высота                                   : 528 пикселей
    Соотношение сторон                       : 4:3
    Частота кадров                           : 25,000 кадров/сек
    Цветовое пространство                    : YUV
    Субдискретизация насыщенности            : 4:2:0
    Битовая глубина                          : 8 бит
    Тип развёртки                            : Прогрессивная
    Метод сжатия                             : С потерями
    Бит/(Пиксели*Кадры)                      : 0.196
    Размер потока                            : 1,20 Гбайт (82%)
    Библиотека кодирования                   : XviD 73

    Аудио
    Идентификатор                            : 1
    Формат                                   : AC-3
    Формат/Информация                        : Audio Coding 3
    Идентификатор кодека                     : 2000
    Продолжительность                        : 1 ч. 34 м.
    Вид битрейта                             : Постоянный
    Битрейт                                  : 384 Кбит/сек
    Каналы                                   : 6 каналов
    Расположение каналов                     : Front: L C R, Side: L R, LFE
    Частота                                  : 48,0 КГц
    Частота кадров                           : 31,250 кадров/сек (1536 SPF)
    Битовая глубина                          : 16 бит
    Метод сжатия                             : С потерями
    Размер потока                            : 259 Мбайт (17%)
    Выравнивание                             : Разделение по промежуткам
    Продолжительность промежутка             : 40  мс. (1,00 видеокадр)
    Время предзагрузки промежутка            : 500  мс
    Свернуть


    Скриншоты

    [screen]http://i100.fastpic.ru/big/2018/0213/36/098ce502b538db28af528d180e467936.png[/screen][screen]http://i101.fastpic.ru/big/2018/0213/d1/8c0f0e14376996042206dafea1e7d1d1.png[/screen][screen]http://i101.fastpic.ru/big/2018/0213/ca/20810a8401073ba9ee06d5b55505d8ca.png[/screen][screen]http://i101.fastpic.ru/big/2018/0213/a7/a52213f8a59b5bb1539476b276183aa7.png[/screen]
    Свернуть
    Инструкция по скачиванию
     1  Качаем uTorrent версии 2.0 и выше
     2  После установки, жмем выше под постером на ссылку Скачать [MediaGet] или Скачать .torrent
     3  Открываем скачанный файл через соответствующий клиент: MediaGet или uTorrent
     4  Ждем пока подключатся участники
     5  Качаем
    Комментарии о  Золотой эшелон | DVDRip 
    Ближайшее в кино
    Вверх