• Игры для PS4
  • Игры для PS3
  • Игры для XBOX360
  • Игры для PC
  • Игры для PS2
  • Игры для PSP
  • Для телефонов
  • Музыка
  • Книги / Журналы
  • Обои
  • Опрос
    Откуда Вы о нас узнали?
      0
    • От знакомых2,1,false,300,full
    • Из социальных сетей2,2,false,300,full
    • Из поисковых систем2,3,false,300,full
    • Другое2,4,false,300,full
    Статистика
    Всего онлайн -
    Гостей -
    Пользователей -
    Короли трекера
    
    Благодарности () Закрыть
    Производство: Ленфильм

    Жанр:  драма
    Год выпуска: 1961
    Продолжительность: 01:16:37

    Перевод: Не требуется
    Cубтитры: нет
    Оригинальная аудиодорожка: русский

    Режиссер: Геннадий Казанский

    В ролях:
    Владимир Самойлов, Кюнна Игнатова, Борис Рыжухин, Пантелеймон Крымов, Вера Медведева, Николай Харитонов, Вячеслав Соколов, Николай Кузьмин, Наталия Кудрявцева, Адриан Филиппов...

    Описание:
    Хирург-кардиолог Алексей Северцев полюбил московскую журналистку Елену Рябинину. Они собирались пожениться, когда Лена вернётся из Москвы. И именно в это время у Северцева на операционном столе умирает больной. Беда, как говорят, не приходит одна: спасая из под колёс поезда девочку, Северцев лишается ног. Рябинина хочет остаться с ним и после несчастья, но Алексей не принимает такой жертвы. Ему кажется, что жизнь кончена. Но на помощь к нему приходят Лена, бывшие больные, друзья. Заместитель Северцева Одинцов убеждает его сделать операцию на сердце мальчику Пете Нечаеву. Идут долгие, мучительные часы тренировок: профессор Северцев учится ходить и стоять на протезах. Он делает операцию, побеждая и собственную слабость, и смерть, грозившую маленькому пациенту.

    [img]http://new-team.org/images/sample_video.png[/img]

    Исходник: DVB
    Качество видео: SATRip
    Формат видео: AVI

    Видео: 688x288 (2,40:1), 25,000 кадров/сек, XviD ~ 1159 kbps avg, 0.234 bit/pixel
    Аудио: 48 kHz, Dolby Digital AC3 2.0, 192 kbps

    MediaInfo

    Общее
    Полное имя                               : I.snova.utro.1961.SATRip_[New-team]_by_AVP_Studio.avi
    Формат                                   : AVI
    Формат/Информация                        : Audio Video Interleave
    Размер файла                             : 745 Мбайт
    Продолжительность                        : 1 ч. 16 м.
    Общий поток                              : 1360 Кбит/сек
    Программа кодирования                    : VirtualDubMod 1.5.10.3 | www.virtualdub-fr.org || (build 2550/release)
    Библиотека кодирования                   : VirtualDubMod build 2550/release

    Видео
    Идентификатор                            : 0
    Формат                                   : MPEG-4 Visual
    Профиль формата                          : Advanced Simple@L5
    Настройки формата                        : BVOP1 / Custom Matrix
    Параметр BVOP формата                    : 1
    Параметр QPel формата                    : Нет
    Параметр GMC формата                     : Без точки перехода
    Параметр матрицы формата                 : Выборочная
    Идентификатор кодека                     : XVID
    Идентификатор кодека/Подсказка           : XviD
    Продолжительность                        : 1 ч. 16 м.
    Битрейт                                  : 1159 Кбит/сек
    Ширина                                   : 688 пикселей
    Высота                                   : 288 пикселей
    Соотношение сторон                       : 2,40:1
    Частота кадров                           : 25,000 кадров/сек
    Цветовое пространство                    : YUV
    Субдискретизация насыщенности            : 4:2:0
    Битовая глубина                          : 8 бит
    Тип развёртки                            : Прогрессивная
    Метод сжатия                             : С потерями
    Бит/(Пиксели*Кадры)                      : 0.234
    Размер потока                            : 635 Мбайт (85%)
    Библиотека кодирования                   : XviD 73

    Аудио
    Идентификатор                            : 1
    Формат                                   : AC-3
    Формат/Информация                        : Audio Coding 3
    Идентификатор кодека                     : 2000
    Продолжительность                        : 1 ч. 16 м.
    Вид битрейта                             : Постоянный
    Битрейт                                  : 192 Кбит/сек
    Каналы                                   : 2 канала
    Расположение каналов                     : Front: L R
    Частота                                  : 48,0 КГц
    Частота кадров                           : 31,250 кадров/сек (1536 SPF)
    Битовая глубина                          : 16 бит
    Метод сжатия                             : С потерями
    Размер потока                            : 105 Мбайт (14%)
    Выравнивание                             : Разделение по промежуткам
    Продолжительность промежутка             : 40  мс. (1,00 видеокадр)
    Время предзагрузки промежутка            : 500  мс
    Свернуть


    Инструкция по скачиванию
     1  Качаем uTorrent версии 2.0 и выше
     2  После установки, жмем выше под постером на ссылку Скачать [MediaGet] или Скачать .torrent
     3  Открываем скачанный файл через соответствующий клиент: MediaGet или uTorrent
     4  Ждем пока подключатся участники
     5  Качаем
    Комментарии о  И снова утро | SATRip 
    Ближайшее в кино
    Вверх