• Игры для PS4
  • Игры для PS3
  • Игры для XBOX360
  • Игры для PC
  • Игры для PS2
  • Игры для PSP
  • Для телефонов
  • Музыка
  • Книги/Журналы
  • Обои
  •  
    Опрос
    Откуда Вы о нас узнали?
      0
    • От знакомых2,1,false,300,full
    • Из социальных сетей2,2,false,300,full
    • Из поисковых систем2,3,false,300,full
    • Другое2,4,false,300,full
    Статистика
    Загрузка...
    Короли трекера
    Нагие из Нью-Йорка / Naked in New York | DVDRip-AVC
    Статус  Проверено
    В закладки
    Модератор: Max

    Нагие из Нью-Йорка / Naked in New York | DVDRip-AVC [Фильмы 1993] скачать торрентом/torrent бесплатно

    Год выхода
    Язык
    Закачал
    Аноним | 14 июня в 12ч 37м 20с
    Раздел
    Отзывов
    0
    Раздают: 5 Качают: 2 Скачали: 255 Размер: 1.84 GB
    Инфо о раздаче | Благодарности |
    0/5
    0
    0 5 0
    Поддержи нас — расскажи друзьям!
    Orbitum
    Новый интернет-браузер Быстрее загружает сайты Экономит интернет—трафик Меняет оформление страницы ВК Блокирует всю рекламу на сайтах Загружает торренты как

    µTorrent

    клиент
    Объеденяет все твои чаты из соц. сетей в один Проигрывает твою музыку не заходя во ВКонтакте
    Скачать и многое другое... Подробности на сайте производителя
    Оригинальное название: Naked in New York
    Год выхода: 1993

    Страна: США
    Студия: Some Film
    Продолжительность: 01:31:09
    Жанр: мелодрама, комедия

    Режиссер: Дэниел Олгрант
    В ролях: Эрик Столц, Мэри-Луиз Паркер, Ральф Маччио, Джилл Клейбёрг, Тони Кертис, Тимоти Далтон, Линн Тигпен, Кэтлин Тёрнер, Роско Ли Браун, Вупи Голдберг, ...

    Перевод: авторский (одноголосый, закадровый) Пронин Антон

    О фильме: О жизни литературной и театральной богемы. Молодой и несколько странноватый драматург добивается успеха со своей пьесой в Нью-Йорке. Нас посвятят в его взаимоотношения с любимой девушкой, другом («голубым» и в него влюбленным), другими женщинами, в его проблемы, внутренние конфликты и сомнения…



    Кодек: x264
    Качество: DVDRip-AVC
    Видео: 704x540, 2500 kbps, 23,976 fps
    Аудио #1: AC-3, 2 ch, 192 kbps (Rus) - AVO Пронин Антон
    Аудио #2: AC-3, 2 ch, 192 kbps (Eng)
    Субтитры: английские

    MediaInfo
    Общее
    Уникальный идентификатор : 198205558941891733807519633018410351532 (0x951D008A59093C78B568BC46E345BBAC)
    Полное имя : Нагие из Нью-Йорка (Naked in New York) 1993 DVDRip.mkv
    Формат : Matroska
    Версия формата : Version 2
    Размер файла : 1,84 Гбайт
    Продолжительность : 1 ч. 31 м.
    Общий поток : 2886 Кбит/сек
    Дата кодирования : UTC 2018-06-14 08:53:28
    Программа кодирования : mkvmerge v4.0.0 ("The Stars were mine") сборка от Jun 6 2010 16:18:42
    Библиотека кодирования : libebml v1.0.0 + libmatroska v1.0.0

    Видео
    Идентификатор : 1
    Формат : AVC
    Формат/Информация : Advanced Video Codec
    Профиль формата : High@L4.1
    Параметр CABAC формата : Да
    Параметр ReFrames формата : 12 кадров
    Идентификатор кодека : V_MPEG4/ISO/AVC
    Продолжительность : 1 ч. 31 м.
    Битрейт : 2500 Кбит/сек
    Ширина : 704 пикселя
    Высота : 540 пикселей
    Соотношение сторон : 4:3
    Режим частоты кадров : Постоянный
    Частота кадров : 23,976 (24000/1001) кадра/сек
    Цветовое пространство : YUV
    Субдискретизация насыщенности : 4:2:0
    Битовая глубина : 8 бит
    Тип развёртки : Прогрессивная
    Бит/(Пиксели*Кадры) : 0.274
    Размер потока : 1,56 Гбайт (85%)
    Библиотека кодирования : x264 core 146 r2538 121396c
    Настройки программы : cabac=1 / ref=12 / deblock=1:-1:-1 / analyse=0x3:0x133 / me=umh / subme=11 / psy=1 / psy_rd=1.00:0.00 / mixed_ref=1 / me_range=32 / chroma_me=1 / trellis=2 / 8x8dct=1 / cqm=0 / deadzone=21,11 / fast_pskip=0 / chroma_qp_offset=-2 / threads=12 / lookahead_threads=2 / sliced_threads=0 / nr=0 / decimate=0 / interlaced=0 / bluray_compat=0 / constrained_intra=0 / bframes=12 / b_pyramid=2 / b_adapt=2 / b_bias=0 / direct=3 / weightb=1 / open_gop=0 / weightp=2 / keyint=240 / keyint_min=23 / scenecut=40 / intra_refresh=0 / rc=2pass / mbtree=0 / bitrate=2500 / ratetol=1.0 / qcomp=0.60 / qpmin=0 / qpmax=69 / qpstep=4 / cplxblur=20.0 / qblur=0.5 / ip_ratio=1.40 / pb_ratio=1.30 / aq=2:0.80
    Язык : English
    Default : Нет
    Forced : Нет

    Аудио #1
    Идентификатор : 2
    Формат : AC-3
    Формат/Информация : Audio Coding 3
    Расширение режима : CM (complete main)
    Параметр Endianness формата : Big
    Идентификатор кодека : A_AC3
    Продолжительность : 1 ч. 31 м.
    Вид битрейта : Постоянный
    Битрейт : 192 Кбит/сек
    Каналы : 2 канала
    Расположение каналов : Front: L R
    Частота : 48,0 КГц
    Частота кадров : 31,250 кадров/сек (1536 spf)
    Метод сжатия : С потерями
    Размер потока : 125 Мбайт (7%)
    Заголовок : AVO Пронин Антон
    Язык : Russian
    Default : Нет
    Forced : Нет

    Аудио #2
    Идентификатор : 3
    Формат : AC-3
    Формат/Информация : Audio Coding 3
    Профиль формата : Dolby Digital
    Расширение режима : CM (complete main)
    Параметр Endianness формата : Big
    Идентификатор кодека : A_AC3
    Продолжительность : 1 ч. 31 м.
    Вид битрейта : Постоянный
    Битрейт : 192 Кбит/сек
    Каналы : 2 канала
    Расположение каналов : Front: L R
    Частота : 48,0 КГц
    Частота кадров : 31,250 кадров/сек (1536 spf)
    Метод сжатия : С потерями
    Размер потока : 125 Мбайт (7%)
    Язык : English
    Default : Нет
    Forced : Нет

    Текст
    Идентификатор : 4
    Формат : UTF-8
    Идентификатор кодека : S_TEXT/UTF8
    Идентификатор кодека/Информация : UTF-8 Plain Text
    Язык : English
    Default : Нет
    Forced : Нет


    [img]https://a.radikal.ru/a16/1806/90/8569d9c30152.jpg[/img][img]https://b.radikal.ru/b34/1806/75/315b0599e071.jpg[/img][img]https://c.radikal.ru/c12/1806/ec/e1d0daf1fbd1.jpg[/img][img]https://d.radikal.ru/d15/1806/88/55781b0f3491.jpg[/img]
    [img]https://c.radikal.ru/c18/1806/96/997f0aa52935.jpg[/img][img]https://a.radikal.ru/a21/1806/41/83cc88f38913.jpg[/img][img]https://b.radikal.ru/b04/1806/84/791bf8b2f278.jpg[/img][img]https://c.radikal.ru/c26/1806/dc/e6ea27d0684a.jpg[/img]
    Еще похожие »

    Как скачать?
    1. Качаем UTorrent версии 2.0 и выше отсюда
    2. После установки, жмем на ссылку Скачать торрент.
    3. Открываем его через utorrent.
    4. Ждем пока подключатся участники.
    5. Качаем.


    Комментарии о Нагие из Нью-Йорка / Naked in New York | DVDRip-AVC
    Добавлять комментарии могут только зарегистрированные пользователи

    Зарегистрироваться или Войти


    Ближайшее в кино
    • МУЛЬТ в кино. Выпуск №77. Команда мечты дата выхода 23 июня 2018МУЛЬТ в кино. Выпуск №77. Команда мечты
      Дата выхода: 23 июня 2018
    • 1162775|Кто украл Banksy|25 июня 2018|200|300Кто украл Banksy
      Дата выхода: 25 июня 2018
    • 1031219|План побега 2|28 июня 2018|200|300План побега 2
      Дата выхода: 28 июня 2018
    • 938461|Убийца 2. Против всех|28 июня 2018|200|300Убийца 2. Против всех
      Дата выхода: 28 июня 2018
    • 912012|Распрекрасный принц|28 июня 2018|200|300Распрекрасный принц
      Дата выхода: 28 июня 2018
    • 1015040|Во власти стихии|28 июня 2018|200|300Во власти стихии
      Дата выхода: 28 июня 2018
    • 759874|Ты водишь!|28 июня 2018|200|300Ты водишь!
      Дата выхода: 28 июня 2018
    • 1077873|Книжный клуб|28 июня 2018|200|300Книжный клуб
      Дата выхода: 28 июня 2018
    • 1047708|Инсомния|28 июня 2018|200|300Инсомния
      Дата выхода: 28 июня 2018
    • 1026748|Джим Пуговка и машинист Лукас|28 июня 2018|200|300Джим Пуговка и машинист Лукас
      Дата выхода: 28 июня 2018
    • 1038941|Осторожно: Грамп!|28 июня 2018|200|300Осторожно: Грамп!
      Дата выхода: 28 июня 2018
    • 977767|50 весенних дней|28 июня 2018|200|30050 весенних дней
      Дата выхода: 28 июня 2018
    • 1162806|Идеальный муж|4 июля 2018|200|300Идеальный муж
      Дата выхода: 4 июля 2018
    • 935940|Человек-муравей и Оса|5 июля 2018|200|300Человек-муравей и Оса
      Дата выхода: 5 июля 2018
    • 977435|Невидимка|5 июля 2018|200|300Невидимка
      Дата выхода: 5 июля 2018
    Вверх