• Игры для PS4
  • Игры для PS3
  • Игры для XBOX360
  • Игры для PC
  • Игры для PS2
  • Игры для PSP
  • Для телефонов
  • Музыка
  • Книги/Журналы
  • Обои
  •  
    Опрос
    Удобен ли сайт в использовании?
      0
    • Очень удобен, все понятно1,1,false,300,full
    • Удобен1,2,false,300,full
    • Средне1,3,false,300,full
    • Неудобен, трудно ориентироваться1,4,false,300,full
    • Совсем неудобен1,5,false,300,full
    Статистика
    Загрузка...
    Забытый феникс / Phoenix Forgotten | BDRip 720p
    Статус  Проверено
    В закладки
    Модератор: Max

    Забытый феникс / Phoenix Forgotten | BDRip 720p [Фильмы 2017] скачать торрентом/torrent бесплатно

    Год выхода
    Язык
    Закачал
    Max | 14 июня в 16ч 13м 05с
    Раздел
    Отзывов
    0
    Раздают: 12 Качают: 5 Скачали: 160 Размер: 4.25 GB
    Инфо о раздаче | Благодарности |
    0/5
    0
    0 5 0
    Поддержи нас — расскажи друзьям!
    Orbitum
    Новый интернет-браузер Быстрее загружает сайты Экономит интернет—трафик Меняет оформление страницы ВК Блокирует всю рекламу на сайтах Загружает торренты как

    µTorrent

    клиент
    Объеденяет все твои чаты из соц. сетей в один Проигрывает твою музыку не заходя во ВКонтакте
    Скачать и многое другое... Подробности на сайте производителя
    Информация о фильме
    Название: Забытый феникс
    Оригинальное название: Phoenix Forgotten
    Год выхода: 2017
    Жанр: Ужасы, фантастика, триллер, детектив
    Страна: США
    Перевод: Профессиональный многоголосый | iTunes
    Продолжительность: 01:26:47
    Режиссер: Джастин Барбер
    В ролях: Флоренс Хэртиган, Люк Спенсер Робертс, Челси Лопез, Джастин Мэтьюз, Клинт Джордан, Сид Стриттмэттер, Джанин Джексон, Мэтт Бидел, Ана Дела Крус, МакКензи Фиргенз и др.

    О фильме: Софи помнит старшего брата Джоша очень плохо, потому что 20 лет назад, как раз вовремя празднования её шестилетия, вся семья стала свидетелями необычного свечения в небе над Аризоной. После этого Джош нашёл единомышленников, и ребята решили выяснить истинную природу странных огней. Несколько дней спустя трое подростков бесследно пропали. Теперь уже взрослой Софи пытается узнать, что же случилось с её братом много лет назад.

    [img]http://imdb.snick.ru/ratefor/02/tt6574272.png[/img][img]https://rating.kinopoisk.ru/1033665.gif[/img][img]http://img12.lostpic.net/2018/03/07/3b8e4af59513263f656f448f8991ff0d.th.jpg[/img]

    Файл
    Качество: BDRip 720p
    Видео: MPEG-4 AVC, 1280x720, 6000 kbps, 23,976 fps
    Звук#1: русский, AC3, 6 ch, 48 kHz, 384 kbps | iTunes
    Звук#2: английский, AC3, 6 ch, 48 kHz, 640 kbps | оригинал
    Субтитры: английские

    MI
    Общее
    Уникальный идентификатор                 : 189193075861696779000055900543540127854 (0x8E5542D15F75C69E94D29A3CB955E86E)
    Полное имя                               : G:DelugePhoenix.Forgotten.2017BDRip720p.mkv
    Формат                                   : Matroska
    Версия формата                           : Version 4 / Version 2
    Размер файла                             : 4,25 Гбайт
    Продолжительность                        : 1 ч. 26 м.
    Общий поток                              : 7017 Кбит/сек
    Дата кодирования                         : UTC 2018-06-14 09:56:09
    Программа кодирования                    : mkvmerge v9.5.0 ("Quiet Fire") 64bit
    Библиотека кодирования                   : libebml v1.3.4 + libmatroska v1.4.5

    Видео
    Идентификатор                            : 1
    Формат                                   : AVC
    Формат/Информация                        : Advanced Video Codec
    Профиль формата                          : High@L4.1
    Настройки формата                        : CABAC / 9 Ref Frames
    Параметр CABAC формата                   : Да
    Параметр RefFrames формата               : 9 кадров
    Идентификатор кодека                     : V_MPEG4/ISO/AVC
    Продолжительность                        : 1 ч. 26 м.
    Битрейт                                  : 6000 Кбит/сек
    Ширина                                   : 1280 пикселей
    Высота                                   : 720 пикселей
    Соотношение сторон                       : 16:9
    Режим частоты кадров                     : Постоянный
    Частота кадров                           : 23,976 (24000/1001) кадра/сек
    Цветовое пространство                    : YUV
    Субдискретизация насыщенности            : 4:2:0
    Битовая глубина                          : 8 бит
    Тип развёртки                            : Прогрессивная
    Бит/(Пиксели*Кадры)                      : 0.272
    Размер потока                            : 3,63 Гбайт (85%)
    Библиотека кодирования                   : x264 core 155 r2901M 7d0ff22
    Настройки программы                      : cabac=1 / ref=9 / deblock=1:-2:-2 / analyse=0x3:0x133 / me=umh / subme=11 / psy=1 / psy_rd=1.00:0.00 / mixed_ref=1 / me_range=32 / chroma_me=1 / trellis=2 / 8x8dct=1 / cqm=0 / deadzone=21,11 / fast_pskip=0 / chroma_qp_offset=-2 / threads=5 / lookahead_threads=1 / sliced_threads=0 / nr=0 / decimate=0 / interlaced=0 / bluray_compat=0 / constrained_intra=0 / bframes=10 / b_pyramid=2 / b_adapt=2 / b_bias=0 / direct=3 / weightb=1 / open_gop=0 / weightp=2 / keyint=240 / keyint_min=24 / scenecut=40 / intra_refresh=0 / rc_lookahead=120 / rc=2pass / mbtree=0 / bitrate=6000 / ratetol=1.0 / qcomp=0.70 / qpmin=0 / qpmax=69 / qpstep=4 / cplxblur=20.0 / qblur=0.5 / vbv_maxrate=62500 / vbv_bufsize=78125 / nal_hrd=none / filler=0 / ip_ratio=1.40 / pb_ratio=1.30 / aq=1:1.00
    Default                                  : Да
    Forced                                   : Нет

    Аудио #1
    Идентификатор                            : 2
    Формат                                   : AC-3
    Формат/Информация                        : Audio Coding 3
    Идентификатор кодека                     : A_AC3
    Продолжительность                        : 1 ч. 26 м.
    Вид битрейта                             : Постоянный
    Битрейт                                  : 384 Кбит/сек
    Каналы                                   : 6 каналов
    Расположение каналов                     : Front: L C R, Side: L R, LFE
    Частота                                  : 48,0 КГц
    Частота кадров                           : 31,250 кадров/сек (1536 SPF)
    Битовая глубина                          : 16 бит
    Метод сжатия                             : С потерями
    Размер потока                            : 238 Мбайт (5%)
    Язык                                     : Russian
    Default                                  : Да
    Forced                                   : Нет

    Аудио #2
    Идентификатор                            : 3
    Формат                                   : AC-3
    Формат/Информация                        : Audio Coding 3
    Идентификатор кодека                     : A_AC3
    Продолжительность                        : 1 ч. 26 м.
    Вид битрейта                             : Постоянный
    Битрейт                                  : 640 Кбит/сек
    Каналы                                   : 6 каналов
    Расположение каналов                     : Front: L C R, Side: L R, LFE
    Частота                                  : 48,0 КГц
    Частота кадров                           : 31,250 кадров/сек (1536 SPF)
    Битовая глубина                          : 16 бит
    Метод сжатия                             : С потерями
    Размер потока                            : 397 Мбайт (9%)
    Язык                                     : English
    Default                                  : Нет
    Forced                                   : Нет

    Текст
    Идентификатор                            : 4
    Формат                                   : UTF-8
    Идентификатор кодека                     : S_TEXT/UTF8
    Идентификатор кодека/Информация          : UTF-8 Plain Text
    Продолжительность                        : 1 ч. 23 м.
    Битрейт                                  : 89 бит/сек
    ElementCount                             : 1484
    Размер потока                            : 55,0 Кбайт (0%)
    Язык                                     : English
    Default                                  : Да
    Forced                                   : Нет

    Меню
    00:00:00.000                             : :00:00:00.000
    00:02:51.463                             : :00:02:51.463
    00:05:52.060                             : :00:05:52.060
    00:09:26.399                             : :00:09:26.399
    00:12:09.604                             : :00:12:09.604
    00:14:51.849                             : :00:14:51.849
    00:18:09.714                             : :00:18:09.714
    00:20:33.357                             : :00:20:33.357
    00:23:52.640                             : :00:23:52.640
    00:27:32.484                             : :00:27:32.484
    00:29:49.746                             : :00:29:49.746
    00:32:22.899                             : :00:32:22.899
    00:35:52.567                             : :00:35:52.567
    00:37:49.642                             : :00:37:49.642
    00:40:34.891                             : :00:40:34.891
    00:44:01.264                             : :00:44:01.264
    00:46:37.628                             : :00:46:37.628
    00:49:23.419                             : :00:49:23.419
    00:52:57.800                             : :00:52:57.800
    00:54:51.163                             : :00:54:51.163
    00:57:02.085                             : :00:57:02.085
    01:01:04.578                             : :01:01:04.578
    01:05:02.565                             : :01:05:02.565
    01:08:44.495                             : :01:08:44.495
    01:13:22.440                             : :01:13:22.440
    01:16:10.524                             : :01:16:10.524
    01:18:55.648                             : :01:18:55.648
    01:20:19.815                             : :01:20:19.815



    Скриншоты
    [img]http://img12.lostpic.net/2018/06/14/733492a732876cd32a9deafbacd60fdf.png[/img][img]http://img12.lostpic.net/2018/06/14/f257c7698a8c36d284aba0b416aa7ed4.png[/img][img]http://img12.lostpic.net/2018/06/14/5b20d9e8b603852acedb4147cfccb4bb.png[/img][img]http://img12.lostpic.net/2018/06/14/ca1baf169c97c9eef856bff52728acca.png[/img]
    [img]http://img12.lostpic.net/2018/06/14/67b0b071e0914e4b9804f449f53f12b9.png[/img][img]http://img12.lostpic.net/2018/06/14/3576d77b5781cd2c029dd58a78e15d28.png[/img][img]http://img12.lostpic.net/2018/06/14/fdaa09d22cd6f69e5953568fb4a285a7.png[/img][img]http://img12.lostpic.net/2018/06/14/fab43782903f70d4c7383b3b395d05b6.png[/img]
    Еще похожие »

    Как скачать?
    1. Качаем UTorrent версии 2.0 и выше отсюда
    2. После установки, жмем на ссылку Скачать торрент.
    3. Открываем его через utorrent.
    4. Ждем пока подключатся участники.
    5. Качаем.


    Комментарии о Забытый феникс / Phoenix Forgotten | BDRip 720p
    Добавлять комментарии могут только зарегистрированные пользователи

    Зарегистрироваться или Войти


    Ближайшее в кино
    • Кто украл Banksy дата выхода 25 июня 2018Кто украл Banksy
      Дата выхода: 25 июня 2018
    • 1031219|План побега 2|28 июня 2018|200|300План побега 2
      Дата выхода: 28 июня 2018
    • 938461|Убийца 2. Против всех|28 июня 2018|200|300Убийца 2. Против всех
      Дата выхода: 28 июня 2018
    • 912012|Распрекрасный принц|28 июня 2018|200|300Распрекрасный принц
      Дата выхода: 28 июня 2018
    • 1015040|Во власти стихии|28 июня 2018|200|300Во власти стихии
      Дата выхода: 28 июня 2018
    • 759874|Ты водишь!|28 июня 2018|200|300Ты водишь!
      Дата выхода: 28 июня 2018
    • 1077873|Книжный клуб|28 июня 2018|200|300Книжный клуб
      Дата выхода: 28 июня 2018
    • 1047708|Инсомния|28 июня 2018|200|300Инсомния
      Дата выхода: 28 июня 2018
    • 1026748|Джим Пуговка и машинист Лукас|28 июня 2018|200|300Джим Пуговка и машинист Лукас
      Дата выхода: 28 июня 2018
    • 1038941|Осторожно: Грамп!|28 июня 2018|200|300Осторожно: Грамп!
      Дата выхода: 28 июня 2018
    • 977767|50 весенних дней|28 июня 2018|200|30050 весенних дней
      Дата выхода: 28 июня 2018
    • 1162806|Идеальный муж|4 июля 2018|200|300Идеальный муж
      Дата выхода: 4 июля 2018
    • 935940|Человек-муравей и Оса|5 июля 2018|200|300Человек-муравей и Оса
      Дата выхода: 5 июля 2018
    • 977435|Невидимка|5 июля 2018|200|300Невидимка
      Дата выхода: 5 июля 2018
    • 988157|Париж. Город Zомби|5 июля 2018|200|300Париж. Город Zомби
      Дата выхода: 5 июля 2018
    Вверх