• Игры для PS4
  • Игры для PS3
  • Игры для XBOX360
  • Игры для PC
  • Игры для PS2
  • Игры для PSP
  • Для телефонов
  • Музыка
  • Книги / Журналы
  • Обои
  • Опрос
    Откуда Вы о нас узнали?
      0
    • От знакомых2,1,false,300,full
    • Из социальных сетей2,2,false,300,full
    • Из поисковых систем2,3,false,300,full
    • Другое2,4,false,300,full
    Статистика
    Всего онлайн -
    Гостей -
    Пользователей -
    Короли трекера
    Благодарности () Закрыть
    Информация о фильме
    Год выхода: 2018
    Наименование: Шекспир и Хэтэуэй: Частные детективы
    Оригинальное наименование: Shakespeare & Hathaway: Private Investigators
    Страна: Великобритания
    Жанр:  драма, комедия, детектив
    Режиссер постановщик: Пётр Шкопяк, Йен Барбер, Каролина Джаметта
    В главных ролях: Марк Бентон, Джо Джойнер, Patrick Walshe McBride, Эмбер Агар, Томос Имс, Роберта Тейлор, Ашек Ахтар, Джои Бэти, Ричард Ламсден, Скарлет Мерфи

    О фильме: Луэлла Шекспир и Фрэнк Хэтэуэй, пара чудаков-детективов, расследуют преступления в Стратфорд-апон-Эйвоне.



    Файл
    Качество: HDTVRip 720p
    Видео данные: MKV, 1280x720 (16:9), 25.000 fps, 2686 Кбит/с
    Аудио данные: AC3, 2 ch, 192 Кбит/с
    Перевод: Любительский многоголосый (GreenРай Studio)
    Продолжительность: 10 x 00:46:00

    Медиаинфо
    General
    Unique ID                                : 227832425276633255657273450649562912536 (0xAB66EDD3E0F766F1AD1C57E590D01718)
    Complete name                            : D:ГРИНРАЙShakespeare.And.Hathaway.Private.Investigators.S01.720pShakespeare.And.Hathaway.Private.Investigators.S01E01.HDTV.720p.mkv
    Format                                   : Matroska
    Format version                           : Version 2
    File size                                : 966 MiB
    Duration                                 : 46 min 0 s
    Overall bit rate                         : 2 936 kb/s
    Encoded date                             : UTC 2018-06-11 18:08:45
    Writing application                      : mkvmerge v7.8.0 ("River Man") 32bit built on Apr  3 2015 12:11:22
    Writing library                          : libebml v1.3.1 + libmatroska v1.4.2

    Video
    ID                                       : 1
    Format                                   : AVC
    Format/Info                              : Advanced Video Codec
    Format profile                           : High@L3.1
    Format settings                          : CABAC / 4 Ref Frames
    Format settings, CABAC                   : Yes
    Format settings, RefFrames               : 4 frames
    Codec ID                                 : V_MPEG4/ISO/AVC
    Duration                                 : 46 min 0 s
    Bit rate                                 : 2 686 kb/s
    Width                                    : 1 280 pixels
    Height                                   : 720 pixels
    Display aspect ratio                     : 16:9
    Frame rate mode                          : Constant
    Frame rate                               : 25.000 FPS
    Color space                              : YUV
    Chroma subsampling                       : 4:2:0
    Bit depth                                : 8 bits
    Scan type                                : Progressive
    Bits/(Pixel*Frame)                       : 0.117
    Stream size                              : 884 MiB (91%)
    Writing library                          : x264 core 146 r2538 121396c
    Encoding settings                        : cabac=1 / ref=1 / deblock=1:0:0 / analyse=0x3:0x113 / me=hex / subme=2 / psy=1 / psy_rd=1.00:0.00 / mixed_ref=0 / me_range=16 / chroma_me=1 / trellis=0 / 8x8dct=1 / cqm=0 / deadzone=21,11 / fast_pskip=1 / chroma_qp_offset=0 / threads=18 / lookahead_threads=5 / sliced_threads=0 / nr=0 / decimate=1 / interlaced=0 / bluray_compat=0 / constrained_intra=0 / bframes=3 / b_pyramid=2 / b_adapt=1 / b_bias=0 / direct=1 / weightb=1 / open_gop=0 / weightp=1 / keyint=250 / keyint_min=25 / scenecut=40 / intra_refresh=0 / rc_lookahead=10 / rc=crf / mbtree=1 / crf=16.3 / qcomp=0.60 / qpmin=0 / qpmax=69 / qpstep=4 / ip_ratio=1.40 / aq=1:1.00
    Default                                  : Yes
    Forced                                   : No

    Audio
    ID                                       : 2
    Format                                   : AC-3
    Format/Info                              : Audio Coding 3
    Codec ID                                 : A_AC3
    Duration                                 : 46 min 0 s
    Bit rate mode                            : Constant
    Bit rate                                 : 192 kb/s
    Channel(s)                               : 2 channels
    Channel positions                        : Front: L R
    Sampling rate                            : 48.0 kHz
    Frame rate                               : 31.250 FPS (1536 SPF)
    Bit depth                                : 16 bits
    Compression mode                         : Lossy
    Stream size                              : 63.2 MiB (7%)
    Service kind                             : Complete Main
    Default                                  : Yes
    Forced                                   : NoСвернуть


    Внимание, имеется  видео и аудио реклама от спонсора показа

    Похожие раздачи Искать похожие
    Инструкция по скачиванию
     1  Качаем uTorrent версии 2.0 и выше
     2  После установки, жмем выше под постером на ссылку Скачать [MediaGet] или Скачать .torrent
     3  Открываем скачанный файл через соответствующий клиент: MediaGet или uTorrent
     4  Ждем пока подключатся участники
     5  Качаем
    Комментарии о  Шекспир и Хэтэуэй: Частные детективы / Shakespeare & Hathaway: Private Investigators [Сезон 01] | HDTVRip 720p 
    Ближайшее в кино
    Вверх