• Игры для PS4
  • Игры для PS3
  • Игры для XBOX360
  • Игры для PC
  • Игры для PS2
  • Игры для PSP
  • Для телефонов
  • Музыка
  • Книги/Журналы
  • Обои
  •  
    Опрос
    Откуда Вы о нас узнали?
      0
    • От знакомых2,1,false,300,full
    • Из социальных сетей2,2,false,300,full
    • Из поисковых систем2,3,false,300,full
    • Другое2,4,false,300,full
    Статистика
    Загрузка...
    Трансформеры: Месть падших / Transformers: Revenge of the Fallen | BDRip-HEVC 1080p
    Статус  Проверено
    В закладки
    Модератор: Max

    Трансформеры: Месть падших / Transformers: Revenge of the Fallen | BDRip-HEVC 1080p [Фильмы 2009] скачать торрентом/torrent бесплатно

    Год выхода
    Категории
    Язык
    Закачал
    Аноним | 14 июня в 21ч 57м 03с
    Раздел
    Отзывов
    0
    Раздают: 6 Качают: 3 Скачали: 6 Размер: 9.99 GB
    Инфо о раздаче | Благодарности |
    0/5
    0
    0 5 0
    Поддержи нас — расскажи друзьям!
    Orbitum
    Новый интернет-браузер Быстрее загружает сайты Экономит интернет—трафик Меняет оформление страницы ВК Блокирует всю рекламу на сайтах Загружает торренты как

    µTorrent

    клиент
    Объеденяет все твои чаты из соц. сетей в один Проигрывает твою музыку не заходя во ВКонтакте
    Скачать и многое другое... Подробности на сайте производителя
    • Жанр: Фантастика, боевик
    • Год выпуска: 2009
    • Продолжительность: 02:30:24

    • Перевод: Дублированный
    • Субтитры: Русские, английские
    • Оригинальная аудиодорожка: Есть

    • Режиссер: Майкл Бэй /Michael Bay/

    • В ролях: Шайа ЛаБаф /Shia LaBeouf/, Меган Фокс /Megan Fox/, Джош Дюамель /Josh Duhamel/, Тайриз Гибсон /Tyrese Gibson/, Джон Туртурро /John Turturro/, Рамон Родригез /Ramon Rodriguez/, Кевин Данн /Kevin Dunn/, Джули Уайт /Julie White/, Изабель Лукас/Isabel Lucas/, Джон Бенжамин Хикки /John Benjamin Hickey/...

    • Описание: Прошло два года с тех пор, как юный Сэм Уитвикки спас Вселенную, предотвратив глобальную битву между враждующими воинственными расами инопланетных роботов. Несмотря на свои героические подвиги, Сэм остается обычным подростком с обычными проблемами — поступлением в колледж и родителями. Разумеется, отъезд будет тяжело воспринят лучшим другом, роботом — телохранителем Бамблби.
    Сэм изо всех сил пытается забыть о конфликте в Мишн Сити и вернуться к нормальной жизни. Однако битва между Автоботами и Десептиконами, несмотря на гриф полной секретности, многое изменила…

    [img]http://i65.fastpic.ru/big/2015/0818/d4/744e99baca761b613f1a0bd93423bcd4.gif[/img]

    • Релиз: [img]https://a.radikal.ru/a30/1805/9d/3a9abdd6febe.gif[/img]
    • Тип релиза: BDRip 1080p
    • Контейнер: MKV

    • Видео: x265, 10Bit, 1920х800 (16:9), 23,976 fps, ~8 593 kb/s, 0.233 bit/pixe
    • Аудио #1: Русский (AC3, 6 ch, 448 Кбит/с) / Дублированный  
    • Аудио #2: Английский (AC3, 6 ch, 448 Кбит/с)
    MediaInfo

    General
    Unique ID                   : 320601118450672729849727123042819093235 (0xF131878840FD4067FD5B981D1B7FB2F3)
    Complete name               : N:Трансформеры Месть падших (2009) BDRip 1080p [HEVC] 10Bit_Druidblack.mkv
    Format                      : Matroska
    Format version              : Version 4 / Version 2
    File size                   : 9.99 GiB
    Duration                    : 2 h 30 min
    Overall bit rate            : 9 511 kb/s
    Encoded date                : UTC 2018-06-13 19:01:10
    Writing application         : mkvmerge v24.0.0 ("Beyond The Pale") 64-bit
    Writing library             : libebml v1.3.6 + libmatroska v1.4.9
    Cover                       : Yes
    Attachments                 : cover.jpg
    Encoding Gui                : Hybrid 2018.06.04.1

    Video
    ID                          : 1
    Format                      : HEVC
    Format/Info                 : High Efficiency Video Coding
    Format profile              : Main 10@L5.1@High
    Codec ID                    : V_MPEGH/ISO/HEVC
    Duration                    : 2 h 30 min
    Bit rate                    : 8 593 kb/s
    Width                       : 1 920 pixels
    Height                      : 800 pixels
    Display aspect ratio        : 2.40:1
    Frame rate mode             : Constant
    Frame rate                  : 23.976 (24000/1001) FPS
    Color space                 : YUV
    Chroma subsampling          : 4:2:0 (Type 0)
    Bit depth                   : 10 bits
    Bits/(Pixel*Frame)          : 0.233
    Stream size                 : 9.03 GiB (90%)
    Writing library             : x265 2.8+12-9cde2c278464:[Windows][GCC 7.3.0][64 bit] 10bit
    Encoding settings           : cpuid=1049071 / frame-threads=4 / wpp / no-pmode / no-pme / no-psnr / no-ssim / log-level=2 / input-csp=1 / input-res=1920x800 / interlace=0 / total-frames=0 / level-idc=51 / high-tier=1 / uhd-bd=0 / ref=5 / no-allow-non-conformance / no-repeat-headers / annexb / no-aud / no-hrd / info / hash=0 / no-temporal-layers / open-gop / min-keyint=23 / keyint=240 / gop-lookahead=0 / bframes=8 / b-adapt=2 / b-pyramid / bframe-bias=0 / rc-lookahead=40 / lookahead-slices=5 / scenecut=40 / radl=0 / no-intra-refresh / ctu=64 / min-cu-size=8 / rect / no-amp / max-tu-size=32 / tu-inter-depth=3 / tu-intra-depth=3 / limit-tu=4 / rdoq-level=2 / dynamic-rd=0.00 / no-ssim-rd / signhide / no-tskip / nr-intra=0 / nr-inter=0 / no-constrained-intra / no-strong-intra-smoothing / max-merge=3 / limit-refs=3 / limit-modes / me=3 / subme=7 / merange=57 / temporal-mvp / weightp / weightb / no-analyze-src-pics / deblock=-3:-3 / no-sao / no-sao-non-deblock / rd=4 / no-early-skip / rskip / no-fast-intra / no-tskip-fast / no-cu-lossless / no-b-intra / no-splitrd-skip / rdpenalty=0 / psy-rd=2.00 / psy-rdoq=1.00 / no-rd-refine / no-lossless / cbqpoffs=0 / crqpoffs=0 / rc=crf / crf=20.0 / qcomp=0.60 / qpstep=4 / stats-write=0 / stats-read=0 / vbv-maxrate=160000 / vbv-bufsize=160000 / vbv-init=0.9 / crf-max=0.0 / crf-min=0.0 / ipratio=1.40 / pbratio=1.30 / aq-mode=1 / aq-strength=1.00 / cutree / zone-count=1 / zones: / start-frame=206155 / end-frame=216382 / qp=35 / no-strict-cbr / qg-size=32 / no-rc-grain / qpmax=69 / qpmin=0 / no-const-vbv / sar=0 / overscan=0 / videoformat=5 / range=0 / colorprim=2 / transfer=2 / colormatrix=1 / chromaloc=1 / chromaloc-top=0 / chromaloc-bottom=0 / display-window=0 / max-cll=0,0 / min-luma=0 / max-luma=1023 / log2-max-poc-lsb=8 / vui-timing-info / vui-hrd-info / slices=1 / no-opt-qp-pps / no-opt-ref-list-length-pps / no-multi-pass-opt-rps / scenecut-bias=0.05 / no-opt-cu-delta-qp / no-aq-motion / no-hdr / no-hdr-opt / no-dhdr10-opt / no-idr-recovery-sei / analysis-reuse-level=5 / scale-factor=0 / refine-intra=0 / refine-inter=0 / refine-mv=0 / no-limit-sao / ctu-info=0 / no-lowpass-dct / refine-mv-type=0 / copy-pic=1 / max-ausize-factor=1.0 / no-dynamic-refine / no-single-sei
    Default                     : Yes
    Forced                      : Yes
    Color range                 : Limited
    Matrix coefficients         : BT.709

    Audio #1
    ID                          : 2
    Format                      : AC-3
    Format/Info                 : Audio Coding 3
    Codec ID                    : A_AC3
    Duration                    : 2 h 30 min
    Bit rate mode               : Constant
    Bit rate                    : 448 kb/s
    Channel(s)                  : 6 channels
    Channel positions           : Front: L C R, Side: L R, LFE
    Sampling rate               : 48.0 kHz
    Frame rate                  : 31.250 FPS (1536 SPF)
    Bit depth                   : 16 bits
    Compression mode            : Lossy
    Stream size                 : 482 MiB (5%)
    Language                    : Russian
    Service kind                : Complete Main
    Default                     : Yes
    Forced                      : No

    Audio #2
    ID                          : 3
    Format                      : AC-3
    Format/Info                 : Audio Coding 3
    Codec ID                    : A_AC3
    Duration                    : 2 h 30 min
    Bit rate mode               : Constant
    Bit rate                    : 448 kb/s
    Channel(s)                  : 6 channels
    Channel positions           : Front: L C R, Side: L R, LFE
    Sampling rate               : 48.0 kHz
    Frame rate                  : 31.250 FPS (1536 SPF)
    Bit depth                   : 16 bits
    Compression mode            : Lossy
    Stream size                 : 482 MiB (5%)
    Language                    : English
    Service kind                : Complete Main
    Default                     : No
    Forced                      : No

    Text #1
    ID                          : 4
    Format                      : PGS
    Muxing mode                 : zlib
    Codec ID                    : S_HDMV/PGS
    Codec ID/Info               : Picture based subtitle format used on BDs/HD-DVDs
    Duration                    : 2 h 22 min
    Bit rate                    : 32.0 kb/s
    Count of elements           : 3750
    Stream size                 : 32.6 MiB (0%)
    Language                    : Russian
    Default                     : Yes
    Forced                      : No

    Text #2
    ID                          : 5
    Format                      : PGS
    Muxing mode                 : zlib
    Codec ID                    : S_HDMV/PGS
    Codec ID/Info               : Picture based subtitle format used on BDs/HD-DVDs
    Duration                    : 2 h 22 min
    Bit rate                    : 46.8 kb/s
    Count of elements           : 3974
    Stream size                 : 47.7 MiB (0%)
    Language                    : English
    Default                     : No
    Forced                      : No

    Menu
    00:00:00.000                : en:Chapter 1
    00:08:49.278                : en:Chapter 2
    00:14:52.641                : en:Chapter 3
    00:18:18.013                : en:Chapter 4
    00:25:07.631                : en:Chapter 5
    00:33:00.520                : en:Chapter 6
    00:37:07.766                : en:Chapter 7
    00:43:33.652                : en:Chapter 8
    00:54:56.543                : en:Chapter 9
    01:03:46.739                : en:Chapter 10
    01:12:48.863                : en:Chapter 11
    01:20:35.037                : en:Chapter 12
    01:26:57.921                : en:Chapter 13
    01:36:04.008                : en:Chapter 14
    01:45:16.935                : en:Chapter 15
    01:50:57.567                : en:Chapter 16
    01:59:33.666                : en:Chapter 17
    02:07:45.616                : en:Chapter 18
    02:15:37.212                : en:Chapter 19
    02:22:46.724                : en:Chapter 20


    Еще похожие »

    Как скачать?
    1. Качаем UTorrent версии 2.0 и выше отсюда
    2. После установки, жмем на ссылку Скачать торрент.
    3. Открываем его через utorrent.
    4. Ждем пока подключатся участники.
    5. Качаем.


    Комментарии о Трансформеры: Месть падших / Transformers: Revenge of the Fallen | BDRip-HEVC 1080p
    Добавлять комментарии могут только зарегистрированные пользователи

    Зарегистрироваться или Войти


    Ближайшее в кино
    • Короткие волны дата выхода 22 октября 2018Короткие волны
      Дата выхода: 22 октября 2018
    • 1189810|Смешная девчонка|24 октября 2018|200|300Смешная девчонка
      Дата выхода: 24 октября 2018
    • 843790|Репродукция|25 октября 2018|200|300Репродукция
      Дата выхода: 25 октября 2018
    • 782103|Только не они|25 октября 2018|200|300Только не они
      Дата выхода: 25 октября 2018
    • 1007496|Несокрушимый|25 октября 2018|200|300Несокрушимый
      Дата выхода: 25 октября 2018
    • 1101939|На границе миров|25 октября 2018|200|300На границе миров
      Дата выхода: 25 октября 2018
    • 898875|Кукловод|25 октября 2018|200|300Кукловод
      Дата выхода: 25 октября 2018
    • 1176159|Человек, который удивил всех|25 октября 2018|200|300Человек, который удивил всех
      Дата выхода: 25 октября 2018
    • 1049082|Ведьмы|25 октября 2018|200|300Ведьмы
      Дата выхода: 25 октября 2018
    • 1182699|Лоро|25 октября 2018|200|300Лоро
      Дата выхода: 25 октября 2018
    • 1032308|Как прогулять школу с пользой|25 октября 2018|200|300Как прогулять школу с пользой
      Дата выхода: 25 октября 2018
    • 1118074|Два билета домой|25 октября 2018|200|300Два билета домой
      Дата выхода: 25 октября 2018
    • 1200028|МУЛЬТ в кино. Выпуск №83. В центре внимания!|27 октября 2018|200|300МУЛЬТ в кино. Выпуск №83. В центре внимания!
      Дата выхода: 27 октября 2018
    • 568289|Богемская рапсодия|1 ноября 2018|200|300Богемская рапсодия
      Дата выхода: 1 ноября 2018
    • 589787|Хантер Киллер|1 ноября 2018|200|300Хантер Киллер
      Дата выхода: 1 ноября 2018
    Вверх