• Игры для PS4
  • Игры для PS3
  • Игры для XBOX360
  • Игры для PC
  • Игры для PS2
  • Игры для PSP
  • Для телефонов
  • Музыка
  • Книги/Журналы
  • Обои
  •  
    Опрос
    Откуда Вы о нас узнали?
      0
    • От знакомых2,1,false,300,full
    • Из социальных сетей2,2,false,300,full
    • Из поисковых систем2,3,false,300,full
    • Другое2,4,false,300,full
    Статистика
    Загрузка...
    Короли трекера
    Могучие реки / Jeremy Wade's Mighty Rivers [Сезон 01] | HDTVRip 720p
    Статус  Проверено
    В закладки
    Модератор: Max

    Могучие реки / Jeremy Wade's Mighty Rivers [Сезон 01] | HDTVRip 720p [Сериалы 2018] скачать торрентом/torrent бесплатно

    Год выхода
    Категории
    Язык
    Закачал
    Аноним | 14 июня в 22ч 00м 55с
    Раздел
    Отзывов
    0
    Раздают: 4 Качают: 2 Скачали: 5 Размер: 6.56 GB
    Инфо о раздаче | Благодарности |
    0/5
    0
    0 5 0
    Поддержи нас — расскажи друзьям!
    Orbitum
    Новый интернет-браузер Быстрее загружает сайты Экономит интернет—трафик Меняет оформление страницы ВК Блокирует всю рекламу на сайтах Загружает торренты как

    µTorrent

    клиент
    Объеденяет все твои чаты из соц. сетей в один Проигрывает твою музыку не заходя во ВКонтакте
    Скачать и многое другое... Подробности на сайте производителя
    Название: Могучие Реки
    Оригинальное название: Jeremy Wade"s Mighty Rivers
    Год выпуска: 2018
    Жанр:  Документальный
    Выпущено: США
    Режиссер: Гарри Маршал, Лиза Босак Лукас

    В ролях:   Джереми Уэйд

    Описание сериала:
    В этом новом шестисерийном цикле Джереми собирается исследовать некоторые из самых больших водных путей планеты, сверху донизу. С таким же захватывающим стилем, который сделал его мировой звездой телевидения, он будет проверять пульс Амазонки, Ганга, Янцзы, Миссисипи, Дуная и Замбези. Неужели наши величайшие реки действительно прошли мимо точки невозврата, и что же нужно, чтобы спасти их от гибели?

    [img]http://imdb.snick.ru/ratefor/02/tt8267440.png[/img]

    Продолжительность: ~  ~ 00:45:00
    Перевод: Любительский двухголосый (RusFilm)

    Реклама: Присутствует

    Файл
    Формат: MKV
    Качество: HDTVRip (720p)

    Видео: MPEG-4 AVC, ~ 2500 Кбит/с, 1280x720
    Аудио: 48 kHz, AC3 Dolby Digital, 2/0 (L,R) ch, ~192 kbps rus

    MediaInfo

    Format                      : Matroska
    Format version              : Version 4 / Version 2
    File size                   : 1.10 GiB
    Duration                    : 42 min 37 s
    Overall bit rate            : 3 685 kb/s
    Encoded date                : UTC 2018-05-26 20:27:52
    Writing application         : mkvmerge v21.0.0 ("Tardigrades Will Inherit The Earth") 64-bit
    Writing library             : libebml v1.3.5 + libmatroska v1.4.8

    Video
    ID                          : 1
    Format                      : AVC
    Format/Info                 : Advanced Video Codec
    Format profile              : High@L3.1
    Format settings             : CABAC / 1 Ref Frames
    Format settings, CABAC      : Yes
    Format settings, ReFrames   : 1 frame
    Format settings, GOP        : M=1, N=30
    Codec ID                    : V_MPEG4/ISO/AVC
    Duration                    : 42 min 37 s
    Bit rate                    : 3 493 kb/s
    Width                       : 1 280 pixels
    Height                      : 720 pixels
    Display aspect ratio        : 16:9
    Frame rate mode             : Constant
    Frame rate                  : 23.976 (24000/1001) FPS
    Color space                 : YUV
    Chroma subsampling          : 4:2:0
    Bit depth                   : 8 bits
    Scan type                   : Progressive
    Bits/(Pixel*Frame)          : 0.158
    Stream size                 : 1.04 GiB (95%)
    Language                    : English
    Default                     : Yes
    Forced                      : No

    Audio
    ID                          : 2
    Format                      : AAC
    Format/Info                 : Advanced Audio Codec
    Format profile              : LC
    Codec ID                    : A_AAC-2
    Duration                    : 42 min 37 s
    Bit rate                    : 192 kb/s
    Channel(s)                  : 2 channels
    Channel positions           : Front: L R
    Sampling rate               : 48.0 kHz
    Frame rate                  : 46.875 FPS (1024 SPF)
    Compression mode            : Lossy
    Stream size                 : 57.8 MiB (5%)
    Language                    : English
    Default                     : Yes
    Forced                      : No


    Еще похожие »

    Как скачать?
    1. Качаем UTorrent версии 2.0 и выше отсюда
    2. После установки, жмем на ссылку Скачать торрент.
    3. Открываем его через utorrent.
    4. Ждем пока подключатся участники.
    5. Качаем.


    Комментарии о Могучие реки / Jeremy Wade's Mighty Rivers [Сезон 01] | HDTVRip 720p
    Добавлять комментарии могут только зарегистрированные пользователи

    Зарегистрироваться или Войти


    Ближайшее в кино
    • МУЛЬТ в кино. Выпуск №77. Команда мечты дата выхода 23 июня 2018МУЛЬТ в кино. Выпуск №77. Команда мечты
      Дата выхода: 23 июня 2018
    • 1162775|Кто украл Banksy|25 июня 2018|200|300Кто украл Banksy
      Дата выхода: 25 июня 2018
    • 1031219|План побега 2|28 июня 2018|200|300План побега 2
      Дата выхода: 28 июня 2018
    • 938461|Убийца 2. Против всех|28 июня 2018|200|300Убийца 2. Против всех
      Дата выхода: 28 июня 2018
    • 912012|Распрекрасный принц|28 июня 2018|200|300Распрекрасный принц
      Дата выхода: 28 июня 2018
    • 1015040|Во власти стихии|28 июня 2018|200|300Во власти стихии
      Дата выхода: 28 июня 2018
    • 759874|Ты водишь!|28 июня 2018|200|300Ты водишь!
      Дата выхода: 28 июня 2018
    • 1077873|Книжный клуб|28 июня 2018|200|300Книжный клуб
      Дата выхода: 28 июня 2018
    • 1047708|Инсомния|28 июня 2018|200|300Инсомния
      Дата выхода: 28 июня 2018
    • 1026748|Джим Пуговка и машинист Лукас|28 июня 2018|200|300Джим Пуговка и машинист Лукас
      Дата выхода: 28 июня 2018
    • 1038941|Осторожно: Грамп!|28 июня 2018|200|300Осторожно: Грамп!
      Дата выхода: 28 июня 2018
    • 977767|50 весенних дней|28 июня 2018|200|30050 весенних дней
      Дата выхода: 28 июня 2018
    • 1162806|Идеальный муж|4 июля 2018|200|300Идеальный муж
      Дата выхода: 4 июля 2018
    • 935940|Человек-муравей и Оса|5 июля 2018|200|300Человек-муравей и Оса
      Дата выхода: 5 июля 2018
    • 977435|Невидимка|5 июля 2018|200|300Невидимка
      Дата выхода: 5 июля 2018
    Вверх