• Игры для PS4
  • Игры для PS3
  • Игры для XBOX360
  • Игры для PC
  • Игры для PS2
  • Игры для PSP
  • Для телефонов
  • Музыка
  • Книги / Журналы
  • Обои
  • Опрос
    Удобен ли сайт в использовании?
      0
    • Очень удобен, все понятно1,1,false,300,full
    • Удобен1,2,false,300,full
    • Средне1,3,false,300,full
    • Неудобен, трудно ориентироваться1,4,false,300,full
    • Совсем неудобен1,5,false,300,full
    Статистика
    Всего онлайн -
    Гостей -
    Пользователей -
    Короли трекера
    Благодарности () Закрыть
    Название: Могучие Реки
    Оригинальное название: Jeremy Wade"s Mighty Rivers
    Год выпуска: 2018
    Жанр:  Документальный
    Выпущено: США
    Режиссер: Гарри Маршал, Лиза Босак Лукас

    В ролях:   Джереми Уэйд

    Описание сериала:
    В этом новом шестисерийном цикле Джереми собирается исследовать некоторые из самых больших водных путей планеты, сверху донизу. С таким же захватывающим стилем, который сделал его мировой звездой телевидения, он будет проверять пульс Амазонки, Ганга, Янцзы, Миссисипи, Дуная и Замбези. Неужели наши величайшие реки действительно прошли мимо точки невозврата, и что же нужно, чтобы спасти их от гибели?

    [img]http://imdb.snick.ru/ratefor/02/tt8267440.png[/img]

    Продолжительность: ~  ~ 00:45:00
    Перевод: Любительский двухголосый (RusFilm)

    Реклама: Присутствует

    Файл
    Формат: MKV
    Качество: HDTVRip (720p)

    Видео: MPEG-4 AVC, ~ 2500 Кбит/с, 1280x720
    Аудио: 48 kHz, AC3 Dolby Digital, 2/0 (L,R) ch, ~192 kbps rus

    MediaInfo

    Format                      : Matroska
    Format version              : Version 4 / Version 2
    File size                   : 1.10 GiB
    Duration                    : 42 min 37 s
    Overall bit rate            : 3 685 kb/s
    Encoded date                : UTC 2018-05-26 20:27:52
    Writing application         : mkvmerge v21.0.0 ("Tardigrades Will Inherit The Earth") 64-bit
    Writing library             : libebml v1.3.5 + libmatroska v1.4.8

    Video
    ID                          : 1
    Format                      : AVC
    Format/Info                 : Advanced Video Codec
    Format profile              : High@L3.1
    Format settings             : CABAC / 1 Ref Frames
    Format settings, CABAC      : Yes
    Format settings, ReFrames   : 1 frame
    Format settings, GOP        : M=1, N=30
    Codec ID                    : V_MPEG4/ISO/AVC
    Duration                    : 42 min 37 s
    Bit rate                    : 3 493 kb/s
    Width                       : 1 280 pixels
    Height                      : 720 pixels
    Display aspect ratio        : 16:9
    Frame rate mode             : Constant
    Frame rate                  : 23.976 (24000/1001) FPS
    Color space                 : YUV
    Chroma subsampling          : 4:2:0
    Bit depth                   : 8 bits
    Scan type                   : Progressive
    Bits/(Pixel*Frame)          : 0.158
    Stream size                 : 1.04 GiB (95%)
    Language                    : English
    Default                     : Yes
    Forced                      : No

    Audio
    ID                          : 2
    Format                      : AAC
    Format/Info                 : Advanced Audio Codec
    Format profile              : LC
    Codec ID                    : A_AAC-2
    Duration                    : 42 min 37 s
    Bit rate                    : 192 kb/s
    Channel(s)                  : 2 channels
    Channel positions           : Front: L R
    Sampling rate               : 48.0 kHz
    Frame rate                  : 46.875 FPS (1024 SPF)
    Compression mode            : Lossy
    Stream size                 : 57.8 MiB (5%)
    Language                    : English
    Default                     : Yes
    Forced                      : No
    Свернуть


    Похожие раздачи Искать похожие
    Инструкция по скачиванию
     1  Качаем uTorrent версии 2.0 и выше
     2  После установки, жмем выше под постером на ссылку Скачать [MediaGet] или Скачать .torrent
     3  Открываем скачанный файл через соответствующий клиент: MediaGet или uTorrent
     4  Ждем пока подключатся участники
     5  Качаем
    Комментарии о  Могучие реки / Jeremy Wade's Mighty Rivers [Сезон 01] | HDTVRip 720p 
    Ближайшее в кино
    Вверх