• Игры для PS4
  • Игры для PS3
  • Игры для XBOX360
  • Игры для PC
  • Игры для PS2
  • Игры для PSP
  • Для телефонов
  • Музыка
  • Книги/Журналы
  • Обои
  •  
    Опрос
    Удобен ли сайт в использовании?
      0
    • Очень удобен, все понятно1,1,false,300,full
    • Удобен1,2,false,300,full
    • Средне1,3,false,300,full
    • Неудобен, трудно ориентироваться1,4,false,300,full
    • Совсем неудобен1,5,false,300,full
    Статистика
    Загрузка...
    Могучие реки / Jeremy Wade's Mighty Rivers [Сезон 01] | HDTVRip 720p
    Статус  Проверено
    В закладки
    Модератор: Max

    Могучие реки / Jeremy Wade's Mighty Rivers [Сезон 01] | HDTVRip 720p [Сериалы 2018] скачать торрентом/torrent бесплатно

    Год выхода
    Категории
    Язык
    Закачал
    Аноним | 14 июня в 22ч 00м 55с
    Раздел
    Отзывов
    0
    Раздают: 8 Качают: 1 Скачали: 9 Размер: 6.56 GB
    Инфо о раздаче | Благодарности |
    0/5
    0
    0 5 0
    Поддержи нас — расскажи друзьям!
    Orbitum
    Новый интернет-браузер Быстрее загружает сайты Экономит интернет—трафик Меняет оформление страницы ВК Блокирует всю рекламу на сайтах Загружает торренты как

    µTorrent

    клиент
    Объеденяет все твои чаты из соц. сетей в один Проигрывает твою музыку не заходя во ВКонтакте
    Скачать и многое другое... Подробности на сайте производителя
    Название: Могучие Реки
    Оригинальное название: Jeremy Wade"s Mighty Rivers
    Год выпуска: 2018
    Жанр:  Документальный
    Выпущено: США
    Режиссер: Гарри Маршал, Лиза Босак Лукас

    В ролях:   Джереми Уэйд

    Описание сериала:
    В этом новом шестисерийном цикле Джереми собирается исследовать некоторые из самых больших водных путей планеты, сверху донизу. С таким же захватывающим стилем, который сделал его мировой звездой телевидения, он будет проверять пульс Амазонки, Ганга, Янцзы, Миссисипи, Дуная и Замбези. Неужели наши величайшие реки действительно прошли мимо точки невозврата, и что же нужно, чтобы спасти их от гибели?

    [img]http://imdb.snick.ru/ratefor/02/tt8267440.png[/img]

    Продолжительность: ~  ~ 00:45:00
    Перевод: Любительский двухголосый (RusFilm)

    Реклама: Присутствует

    Файл
    Формат: MKV
    Качество: HDTVRip (720p)

    Видео: MPEG-4 AVC, ~ 2500 Кбит/с, 1280x720
    Аудио: 48 kHz, AC3 Dolby Digital, 2/0 (L,R) ch, ~192 kbps rus

    MediaInfo

    Format                      : Matroska
    Format version              : Version 4 / Version 2
    File size                   : 1.10 GiB
    Duration                    : 42 min 37 s
    Overall bit rate            : 3 685 kb/s
    Encoded date                : UTC 2018-05-26 20:27:52
    Writing application         : mkvmerge v21.0.0 ("Tardigrades Will Inherit The Earth") 64-bit
    Writing library             : libebml v1.3.5 + libmatroska v1.4.8

    Video
    ID                          : 1
    Format                      : AVC
    Format/Info                 : Advanced Video Codec
    Format profile              : High@L3.1
    Format settings             : CABAC / 1 Ref Frames
    Format settings, CABAC      : Yes
    Format settings, ReFrames   : 1 frame
    Format settings, GOP        : M=1, N=30
    Codec ID                    : V_MPEG4/ISO/AVC
    Duration                    : 42 min 37 s
    Bit rate                    : 3 493 kb/s
    Width                       : 1 280 pixels
    Height                      : 720 pixels
    Display aspect ratio        : 16:9
    Frame rate mode             : Constant
    Frame rate                  : 23.976 (24000/1001) FPS
    Color space                 : YUV
    Chroma subsampling          : 4:2:0
    Bit depth                   : 8 bits
    Scan type                   : Progressive
    Bits/(Pixel*Frame)          : 0.158
    Stream size                 : 1.04 GiB (95%)
    Language                    : English
    Default                     : Yes
    Forced                      : No

    Audio
    ID                          : 2
    Format                      : AAC
    Format/Info                 : Advanced Audio Codec
    Format profile              : LC
    Codec ID                    : A_AAC-2
    Duration                    : 42 min 37 s
    Bit rate                    : 192 kb/s
    Channel(s)                  : 2 channels
    Channel positions           : Front: L R
    Sampling rate               : 48.0 kHz
    Frame rate                  : 46.875 FPS (1024 SPF)
    Compression mode            : Lossy
    Stream size                 : 57.8 MiB (5%)
    Language                    : English
    Default                     : Yes
    Forced                      : No


    Еще похожие »

    Как скачать?
    1. Качаем UTorrent версии 2.0 и выше отсюда
    2. После установки, жмем на ссылку Скачать торрент.
    3. Открываем его через utorrent.
    4. Ждем пока подключатся участники.
    5. Качаем.


    Комментарии о Могучие реки / Jeremy Wade's Mighty Rivers [Сезон 01] | HDTVRip 720p
    Добавлять комментарии могут только зарегистрированные пользователи

    Зарегистрироваться или Войти


    Ближайшее в кино
    • Примадонна дата выхода 18 октября 2018Примадонна
      Дата выхода: 18 октября 2018
    • 885317|Ученик чудовища|18 октября 2018|200|300Ученик чудовища
      Дата выхода: 18 октября 2018
    • 472369|Хэллоуин|18 октября 2018|200|300Хэллоуин
      Дата выхода: 18 октября 2018
    • 1005852|Дикая жизнь|18 октября 2018|200|300Дикая жизнь
      Дата выхода: 18 октября 2018
    • 696499|Галвестон|18 октября 2018|200|300Галвестон
      Дата выхода: 18 октября 2018
    • 1111886|Лукас|18 октября 2018|200|300Лукас
      Дата выхода: 18 октября 2018
    • 1045555|Вечная жизнь Александра Христофорова|18 октября 2018|200|300Вечная жизнь Александра Христофорова
      Дата выхода: 18 октября 2018
    • 1112943|Шестой пост|18 октября 2018|200|300Шестой пост
      Дата выхода: 18 октября 2018
    • 1044626|Тайна магазина игрушек|18 октября 2018|200|300Тайна магазина игрушек
      Дата выхода: 18 октября 2018
    • 629086|Лягушонок Риббит|18 октября 2018|200|300Лягушонок Риббит
      Дата выхода: 18 октября 2018
    • 991817|Закат|18 октября 2018|200|300Закат
      Дата выхода: 18 октября 2018
    • 1020860|Безупречная жизнь|18 октября 2018|200|300Безупречная жизнь
      Дата выхода: 18 октября 2018
    • 968603|Зимние братья|18 октября 2018|200|300Зимние братья
      Дата выхода: 18 октября 2018
    • 1008554|Слоны могут играть в футбол|18 октября 2018|200|300Слоны могут играть в футбол
      Дата выхода: 18 октября 2018
    • 939290|Прогулка по Риму|18 октября 2018|200|300Прогулка по Риму
      Дата выхода: 18 октября 2018
    Вверх