• Игры для PS4
  • Игры для PS3
  • Игры для XBOX360
  • Игры для PC
  • Игры для PS2
  • Игры для PSP
  • Для телефонов
  • Музыка
  • Книги/Журналы
  • Обои
  •  
    Опрос
    Удобен ли сайт в использовании?
      0
    • Очень удобен, все понятно1,1,false,300,full
    • Удобен1,2,false,300,full
    • Средне1,3,false,300,full
    • Неудобен, трудно ориентироваться1,4,false,300,full
    • Совсем неудобен1,5,false,300,full
    Статистика
    Загрузка...
    Земля умирает крича / The Earth Dies Screaming | BDRip 720p
    Статус  Проверено
    В закладки
    Модератор: Max

    Земля умирает крича / The Earth Dies Screaming | BDRip 720p [Фильмы 1964] скачать торрентом/torrent бесплатно

    Год выхода
    Категории
    Язык
    Закачал
    Max | 14 июня в 22ч 20м 39с
    Раздел
    Отзывов
    0
    Раздают: 8 Качают: 0 Скачали: 10 Размер: 3.65 GB
    Инфо о раздаче | Благодарности |
    0/5
    0
    0 5 0
    Поддержи нас — расскажи друзьям!
    Orbitum
    Новый интернет-браузер Быстрее загружает сайты Экономит интернет—трафик Меняет оформление страницы ВК Блокирует всю рекламу на сайтах Загружает торренты как

    µTorrent

    клиент
    Объеденяет все твои чаты из соц. сетей в один Проигрывает твою музыку не заходя во ВКонтакте
    Скачать и многое другое... Подробности на сайте производителя
    Информация о фильме
    Название: Земля умирает крича
    Оригинальное название: The Earth Dies Screaming
    Год выхода: 1964
    Жанр: ужасы, фантастика
    Режиссер: Теренс Фишер
    В ролях: Уиллард Паркер, Вирджиния Филд, Дэннис Прайс, Торли Уолтерс, Ванда Годселл, Дэвид Спенсер, Анна Полк

    О фильме: Астронавт возвращается на Землю и обнаруживает родную Британию лежащей в руинах — оказывается за время его нахождения в космосе её успели захватить пришельцы, умеющие воскрешать мертвецов и превращать их в своих рабов.



    Страна: Великобритания
    Продолжительность: 01:02:33
    Перевод: Любительский (одноголосый закадровый) fiendover
    Субтитры: нет
    Оригинальная аудиодорожка: английский

    Файл
    Качество: BDRip 720p
    Видео: 1194x720 (5:3); 7 896 Kbps; 23.976 fps; 0.384 bpp
    Аудио 1: Russian; AC3; 48.0 KHz; 2ch; 192 Kbps
    Аудио 2: English; AAC; 48.0 KHz; 2ch; 257 Kbps

    Скриншоты
    [img]http://img12.lostpic.net/2018/06/14/4fcc01835c8bf2ff04fd4363506ad003.png[/img][img]http://img12.lostpic.net/2018/06/14/c2379946cc14b36aa57dc30fe6394f81.png[/img][img]http://img12.lostpic.net/2018/06/14/3a269e339c0960c3542da5e37989dceb.png[/img]


    MediaInfo
    Format : Matroska
    Format version : Version 4 / Version 2
    File size : 3.65 GiB
    Duration : 1 h 2 min
    Overall bit rate : 8 348 kb/s
    Encoded date : UTC 2016-11-19 08:10:40
    Writing application : mkvmerge v8.3.0 ("Over the Horizon") 64bit
    Writing library : libebml v1.3.1 + libmatroska v1.4.2
    Attachments : poster.jpg

    Video
    ID : 1
    Format : AVC
    Format/Info : Advanced Video Codec
    Format profile : High@L4.1
    Format settings, CABAC : Yes
    Format settings, ReFrames : 9 frames
    Codec ID : V_MPEG4/ISO/AVC
    Duration : 1 h 2 min
    Bit rate : 7 896 kb/s
    Width : 1 194 pixels
    Height : 720 pixels
    Display aspect ratio : 5:3
    Frame rate mode : Constant
    Frame rate : 23.976 (24000/1001) FPS
    Color space : YUV
    Chroma subsampling : 4:2:0
    Bit depth : 8 bits
    Scan type : Progressive
    Bits/(Pixel*Frame) : 0.383
    Stream size : 3.45 GiB (95%)
    Writing library : x264 core 148 r2705 3f5ed56
    Encoding settings : cabac=1 / ref=9 / deblock=1:-3:-3 / analyse=0x3:0x133 / me=umh / subme=10 / psy=1 / psy_rd=1.00:0.00 / mixed_ref=1 / me_range=32 / chroma_me=1 / trellis=2 / 8x8dct=1 / cqm=0 / deadzone=21,11 / fast_pskip=0 / chroma_qp_offset=-2 / threads=12 / lookahead_threads=3 / sliced_threads=0 / slices=4 / nr=0 / decimate=0 / interlaced=0 / bluray_compat=0 / constrained_intra=0 / bframes=16 / b_pyramid=2 / b_adapt=2 / b_bias=0 / direct=3 / weightb=1 / open_gop=0 / weightp=2 / keyint=250 / keyint_min=23 / scenecut=40 / intra_refresh=0 / rc_lookahead=40 / rc=2pass / mbtree=0 / bitrate=7896 / ratetol=1.0 / qcomp=0.60 / qpmin=0 / qpmax=69 / qpstep=4 / cplxblur=20.0 / qblur=0.5 / vbv_maxrate=50000 / vbv_bufsize=62500 / nal_hrd=none / filler=0 / ip_ratio=1.25 / pb_ratio=1.15 / aq=3:0.60
    Language : English
    Default : Yes
    Forced : No

    Audio #1
    ID : 2
    Format : AC-3
    Format/Info : Audio Coding 3
    Mode extension : CM (complete main)
    Format settings, Endianness : Big
    Codec ID : A_AC3
    Duration : 1 h 2 min
    Bit rate mode : Constant
    Bit rate : 192 kb/s
    Channel(s) : 2 channels
    Channel positions : Front: L R
    Sampling rate : 48.0 kHz
    Frame rate : 31.250 FPS (1536 spf)
    Bit depth : 16 bits
    Compression mode : Lossy
    Stream size : 85.9 MiB (2%)
    Title : VO fiendover
    Language : Russian
    Default : Yes
    Forced : No

    Audio #2
    ID : 3
    Format : AAC
    Format/Info : Advanced Audio Codec
    Format profile : LC
    Codec ID : A_AAC
    Duration : 1 h 2 min
    Bit rate : 257 kb/s
    Channel(s) : 2 channels
    Channel positions : Front: L R
    Sampling rate : 48.0 kHz
    Frame rate : 46.875 FPS (1024 spf)
    Compression mode : Lossy
    Delay relative to video : 9 ms
    Stream size : 115 MiB (3%)
    Language : English
    Default : No
    Forced : No

    Menu
    00:00:00.000 : en:00:00:00.000
    00:06:44.571 : en:00:06:44.571
    00:12:54.148 : en:00:12:54.148
    00:22:22.049 : en:00:22:22.049
    00:29:06.828 : en:00:29:06.828
    00:38:45.573 : en:00:38:45.573
    00:44:24.370 : en:00:44:24.370
    00:53:21.365 : en:00:53:21.365
    Еще похожие »

    Как скачать?
    1. Качаем UTorrent версии 2.0 и выше отсюда
    2. После установки, жмем на ссылку Скачать торрент.
    3. Открываем его через utorrent.
    4. Ждем пока подключатся участники.
    5. Качаем.


    Комментарии о Земля умирает крича / The Earth Dies Screaming | BDRip 720p
    Добавлять комментарии могут только зарегистрированные пользователи

    Зарегистрироваться или Войти


    Ближайшее в кино
    • МУЛЬТ в кино. Выпуск №79. Как в сказке! дата выхода 18 августа 2018МУЛЬТ в кино. Выпуск №79. Как в сказке!
      Дата выхода: 18 августа 2018
    • 1007425|Днюха!|23 августа 2018|200|300Днюха!
      Дата выхода: 23 августа 2018
    • 921938|22 мили|23 августа 2018|200|30022 мили
      Дата выхода: 23 августа 2018
    • 934956|Альфа|23 августа 2018|200|300Альфа
      Дата выхода: 23 августа 2018
    • 1023331|Отель «Артемида»|23 августа 2018|200|300Отель «Артемида»
      Дата выхода: 23 августа 2018
    • 1008748|Не волнуйся, он далеко не уйдёт|23 августа 2018|200|300Не волнуйся, он далеко не уйдёт
      Дата выхода: 23 августа 2018
    • 1008240|Последний беспредел|23 августа 2018|200|300Последний беспредел
      Дата выхода: 23 августа 2018
    • 789159|Шоу Мистико|23 августа 2018|200|300Шоу Мистико
      Дата выхода: 23 августа 2018
    • 986638|Принцесса и дракон|23 августа 2018|200|300Принцесса и дракон
      Дата выхода: 23 августа 2018
    • 675470|Голубая игуана|23 августа 2018|200|300Голубая игуана
      Дата выхода: 23 августа 2018
    • 1108921|Вилли и крутые тачки|23 августа 2018|200|300Вилли и крутые тачки
      Дата выхода: 23 августа 2018
    • 380|2001 год: Космическая одиссея|30 августа 2018|200|3002001 год: Космическая одиссея
      Дата выхода: 30 августа 2018
    • 1048294|Как женить холостяка|30 августа 2018|200|300Как женить холостяка
      Дата выхода: 30 августа 2018
    • 1114917|Гоголь. Страшная месть|30 августа 2018|200|300Гоголь. Страшная месть
      Дата выхода: 30 августа 2018
    • 939770|Выжившие|30 августа 2018|200|300Выжившие
      Дата выхода: 30 августа 2018
    Вверх