• Игры для PS4
  • Игры для PS3
  • Игры для XBOX360
  • Игры для PC
  • Игры для PS2
  • Игры для PSP
  • Для телефонов
  • Музыка
  • Книги / Журналы
  • Обои
  • Опрос
    Откуда Вы о нас узнали?
      0
    • От знакомых2,1,false,300,full
    • Из социальных сетей2,2,false,300,full
    • Из поисковых систем2,3,false,300,full
    • Другое2,4,false,300,full
    Статистика
    Всего онлайн -
    Гостей -
    Пользователей -
    Короли трекера
    Благодарности () Закрыть
    Название: 2036, происхождение неизвестно
    Оригинальное название: 2036 Origin Unknown
    Год выпуска: 2018
    Страна: Великобритания
    Жанр: фантастика

    Перевод: Любительский двухголосый [HiWay Grope]
    Примечание: Релиз без рекламы
    Продолжительность: 01:34:34

    Режиссер: Хасраф Дулул
    В ролях: Кэти Сакхофф (Mackenzie «Mack» Wilson), Джули Кокс (Lena Sullivan), Стивен Кри (ARTi, озвучка), Рэй Фиарон (Sterling Brooks), Изабелль Марлоу (Jill Valentine, озвучка), Джо Уолтерс (Jake Wilson, озвучка), Дэвид К.С. Тсе (Jian Lin, озвучка)

    Описание:
    Космическая экспедиция обнаруживает на поверхности Марса нечто, способное изменить жизнь человечества навсегда. Но вместо того, чтобы помочь людям раскрыть марсианскую тайну, искусственный интеллект на борту корабля берёт управление на себя.

    Рейтинг:


    Качество: WEB-DLRip
    Формат: AVI
    Видео: XviD, 720x304 (2.37:1), 1816 kbps, 24 fps, 0,346 bpp
    Аудио: AC3 / 5.1 / 48 kHz / 384 kbps /
    Сэмпл

    ОтчетМедиаИнфо

    General
    Complete name                            : F:2036.Origin.Unknown.2018.WEB-DLRip.R.G.Resident.avi
    Format                                   : AVI
    Format/Info                              : Audio Video Interleave
    File size                                : 1.46 GiB
    Duration                                 : 1 h 34 min
    Overall bit rate                         : 2 210 kb/s
    Writing application                      : VirtualDubModRus 1.5.10.2 (build 2542/release)
    Writing library                          : VirtualDubMod build 2542/release

    Video
    ID                                       : 0
    Format                                   : MPEG-4 Visual
    Format profile                           : Advanced Simple@L5
    Format settings, BVOP                    : 1
    Format settings, QPel                    : No
    Format settings, GMC                     : No warppoints
    Format settings, Matrix                  : Custom
    Codec ID                                 : XVID
    Codec ID/Hint                            : XviD
    Duration                                 : 1 h 34 min
    Bit rate                                 : 1 817 kb/s
    Width                                    : 720 pixels
    Height                                   : 304 pixels
    Display aspect ratio                     : 2.35:1
    Frame rate                               : 24.000 FPS
    Color space                              : YUV
    Chroma subsampling                       : 4:2:0
    Bit depth                                : 8 bits
    Scan type                                : Progressive
    Compression mode                         : Lossy
    Bits/(Pixel*Frame)                       : 0.346
    Stream size                              : 1.20 GiB (82%)
    Writing library                          : XviD 73

    Audio
    ID                                       : 1
    Format                                   : AC-3
    Format/Info                              : Audio Coding 3
    Mode extension                           : CM (complete main)
    Format settings, Endianness              : Big
    Codec ID                                 : 2000
    Duration                                 : 1 h 34 min
    Bit rate mode                            : Constant
    Bit rate                                 : 384 kb/s
    Channel(s)                               : 6 channels
    Channel positions                        : Front: L C R, Side: L R, LFE
    Sampling rate                            : 48.0 kHz
    Frame rate                               : 31.250 FPS (1536 spf)
    Compression mode                         : Lossy
    Stream size                              : 260 MiB (17%)
    Alignment                                : Split accross interleaves
    Interleave, duration                     : 42  ms (1.00 video frame)
    Interleave, preload duration             : 500  ms
    Свернуть


    Инструкция по скачиванию
     1  Качаем uTorrent версии 2.0 и выше
     2  После установки, жмем выше под постером на ссылку Скачать [MediaGet] или Скачать .torrent
     3  Открываем скачанный файл через соответствующий клиент: MediaGet или uTorrent
     4  Ждем пока подключатся участники
     5  Качаем
    Комментарии о  2036, происхождение неизвестно / 2036 Origin Unknown | WEB-DLRip 
    Ближайшее в кино
    Вверх