• Игры для PS4
  • Игры для PS3
  • Игры для XBOX360
  • Игры для PC
  • Игры для PS2
  • Игры для PSP
  • Для телефонов
  • Музыка
  • Книги/Журналы
  • Обои
  •  
    Опрос
    Удобен ли сайт в использовании?
      0
    • Очень удобен, все понятно1,1,false,300,full
    • Удобен1,2,false,300,full
    • Средне1,3,false,300,full
    • Неудобен, трудно ориентироваться1,4,false,300,full
    • Совсем неудобен1,5,false,300,full
    Статистика
    Загрузка...
    2036, происхождение неизвестно / 2036 Origin Unknown | WEB-DLRip
    Статус  Проверено
    В закладки
    Модератор: Max

    2036, происхождение неизвестно / 2036 Origin Unknown | WEB-DLRip [Фильмы 2018] скачать торрентом/torrent бесплатно

    Год выхода
    Категории
    Язык
    Закачал
    Max | 14 июня в 22ч 50м 35с
    Раздел
    Отзывов
    0
    Раздают: 20 Качают: 0 Скачали: 29 Размер: 1.46 GB
    Инфо о раздаче | Благодарности |
    0/5
    0
    0 5 0
    Поддержи нас — расскажи друзьям!
    Orbitum
    Новый интернет-браузер Быстрее загружает сайты Экономит интернет—трафик Меняет оформление страницы ВК Блокирует всю рекламу на сайтах Загружает торренты как

    µTorrent

    клиент
    Объеденяет все твои чаты из соц. сетей в один Проигрывает твою музыку не заходя во ВКонтакте
    Скачать и многое другое... Подробности на сайте производителя
    Название: 2036, происхождение неизвестно
    Оригинальное название: 2036 Origin Unknown
    Год выпуска: 2018
    Страна: Великобритания
    Жанр: фантастика

    Перевод: Любительский двухголосый [HiWay Grope]
    Примечание: Релиз без рекламы
    Продолжительность: 01:34:34

    Режиссер: Хасраф Дулул
    В ролях: Кэти Сакхофф (Mackenzie «Mack» Wilson), Джули Кокс (Lena Sullivan), Стивен Кри (ARTi, озвучка), Рэй Фиарон (Sterling Brooks), Изабелль Марлоу (Jill Valentine, озвучка), Джо Уолтерс (Jake Wilson, озвучка), Дэвид К.С. Тсе (Jian Lin, озвучка)

    Описание:
    Космическая экспедиция обнаруживает на поверхности Марса нечто, способное изменить жизнь человечества навсегда. Но вместо того, чтобы помочь людям раскрыть марсианскую тайну, искусственный интеллект на борту корабля берёт управление на себя.

    Рейтинг:


    Качество: WEB-DLRip
    Формат: AVI
    Видео: XviD, 720x304 (2.37:1), 1816 kbps, 24 fps, 0,346 bpp
    Аудио: AC3 / 5.1 / 48 kHz / 384 kbps /
    Сэмпл

    ОтчетМедиаИнфо

    General
    Complete name                            : F:2036.Origin.Unknown.2018.WEB-DLRip.R.G.Resident.avi
    Format                                   : AVI
    Format/Info                              : Audio Video Interleave
    File size                                : 1.46 GiB
    Duration                                 : 1 h 34 min
    Overall bit rate                         : 2 210 kb/s
    Writing application                      : VirtualDubModRus 1.5.10.2 (build 2542/release)
    Writing library                          : VirtualDubMod build 2542/release

    Video
    ID                                       : 0
    Format                                   : MPEG-4 Visual
    Format profile                           : Advanced Simple@L5
    Format settings, BVOP                    : 1
    Format settings, QPel                    : No
    Format settings, GMC                     : No warppoints
    Format settings, Matrix                  : Custom
    Codec ID                                 : XVID
    Codec ID/Hint                            : XviD
    Duration                                 : 1 h 34 min
    Bit rate                                 : 1 817 kb/s
    Width                                    : 720 pixels
    Height                                   : 304 pixels
    Display aspect ratio                     : 2.35:1
    Frame rate                               : 24.000 FPS
    Color space                              : YUV
    Chroma subsampling                       : 4:2:0
    Bit depth                                : 8 bits
    Scan type                                : Progressive
    Compression mode                         : Lossy
    Bits/(Pixel*Frame)                       : 0.346
    Stream size                              : 1.20 GiB (82%)
    Writing library                          : XviD 73

    Audio
    ID                                       : 1
    Format                                   : AC-3
    Format/Info                              : Audio Coding 3
    Mode extension                           : CM (complete main)
    Format settings, Endianness              : Big
    Codec ID                                 : 2000
    Duration                                 : 1 h 34 min
    Bit rate mode                            : Constant
    Bit rate                                 : 384 kb/s
    Channel(s)                               : 6 channels
    Channel positions                        : Front: L C R, Side: L R, LFE
    Sampling rate                            : 48.0 kHz
    Frame rate                               : 31.250 FPS (1536 spf)
    Compression mode                         : Lossy
    Stream size                              : 260 MiB (17%)
    Alignment                                : Split accross interleaves
    Interleave, duration                     : 42  ms (1.00 video frame)
    Interleave, preload duration             : 500  ms


    Еще похожие »

    Как скачать?
    1. Качаем UTorrent версии 2.0 и выше отсюда
    2. После установки, жмем на ссылку Скачать торрент.
    3. Открываем его через utorrent.
    4. Ждем пока подключатся участники.
    5. Качаем.


    Комментарии о 2036, происхождение неизвестно / 2036 Origin Unknown | WEB-DLRip
    Добавлять комментарии могут только зарегистрированные пользователи

    Зарегистрироваться или Войти


    Ближайшее в кино
    • Слендермен дата выхода 16 августа 2018Слендермен
      Дата выхода: 16 августа 2018
    • 1045345|Mamma Mia! 2|16 августа 2018|200|300Mamma Mia! 2
      Дата выхода: 16 августа 2018
    • 989641|Аксель|16 августа 2018|200|300Аксель
      Дата выхода: 16 августа 2018
    • 1009137|Опасное задание|16 августа 2018|200|300Опасное задание
      Дата выхода: 16 августа 2018
    • 901932|Горные огни|16 августа 2018|200|300Горные огни
      Дата выхода: 16 августа 2018
    • 957911|Потерянное отражение: Исповедь содержанки|16 августа 2018|200|300Потерянное отражение: Исповедь содержанки
      Дата выхода: 16 августа 2018
    • 1071376|My Generation|16 августа 2018|200|300My Generation
      Дата выхода: 16 августа 2018
    • 1178005|МУЛЬТ в кино. Выпуск №79. Как в сказке!|18 августа 2018|200|300МУЛЬТ в кино. Выпуск №79. Как в сказке!
      Дата выхода: 18 августа 2018
    • 1007425|Днюха!|23 августа 2018|200|300Днюха!
      Дата выхода: 23 августа 2018
    • 921938|22 мили|23 августа 2018|200|30022 мили
      Дата выхода: 23 августа 2018
    • 934956|Альфа|23 августа 2018|200|300Альфа
      Дата выхода: 23 августа 2018
    • 1023331|Отель «Артемида»|23 августа 2018|200|300Отель «Артемида»
      Дата выхода: 23 августа 2018
    • 1008748|Не волнуйся, он далеко не уйдёт|23 августа 2018|200|300Не волнуйся, он далеко не уйдёт
      Дата выхода: 23 августа 2018
    • 1008240|Последний беспредел|23 августа 2018|200|300Последний беспредел
      Дата выхода: 23 августа 2018
    • 986638|Принцесса и дракон|23 августа 2018|200|300Принцесса и дракон
      Дата выхода: 23 августа 2018
    Вверх