• Игры для PS4
  • Игры для PS3
  • Игры для XBOX360
  • Игры для PC
  • Игры для PS2
  • Игры для PSP
  • Для телефонов
  • Музыка
  • Книги / Журналы
  • Обои
  • Опрос
    Удобен ли сайт в использовании?
      0
    • Очень удобен, все понятно1,1,false,300,full
    • Удобен1,2,false,300,full
    • Средне1,3,false,300,full
    • Неудобен, трудно ориентироваться1,4,false,300,full
    • Совсем неудобен1,5,false,300,full
    Статистика
    Всего онлайн -
    Гостей -
    Пользователей -
    Короли трекера
    
    Благодарности () Закрыть
    Быстрее загружает сайты Экономит интернет—трафик Меняет оформление страницы ВК Блокирует всю рекламу на сайтах Загружает торренты как µTorrent клиент Объеденяет все твои чаты из соц. сетей в один Проигрывает твою музыку не заходя во ВКонтакте
    Новый интернет-браузер
    Оrbitum
    Скачать
    и многое другое... Подробности на сайте производителя
    Год выпуска: 2011
    Страна: США
    Жанр:  боевик, триллер
    Продолжительность: 01:30:09
    Перевод: Профессиональный (многоголосый, закадровый) R5
    Перевод: Любительский (двухголосый, закадровый)
    Субтитры: английские

    Режиссер: Уильям Кауфман / William Kaufman

    В ролях: Кьюба Гудинг мл., Коул Хаузер, Джонатан ЛаПалья, Ginny Weirick, Дрю Уотерс, Шон Кук, Майкл Пападжон, Дж.П. О’Шонесси, Дэвид Эндриол, Брэндон О’Нейлл, Daniel Brockley, Катаржина Волейджио, Tracy Schornick, Холт Боггс, Сара Анн Шультс, Armand Jalayeri, Дэвид Е. Орнстон, Натали Уиллз, Бэрри Холлэнд, Sonny Puzikas, Брэндон Мессенджер, Рэйчел Хэндлер, Рон Балики, Джей Стэмпер, Gary Williams, Джефф Муринг, Рич Кауэн, Мэтт МакКольм

    Описание: Однажды вечером бизнесмен Аллан Кэмпбелл, раздавленный чередой обрушившихся на него неприятностей, знакомится с таинственным незнакомцем Джонасом Арбором. Джонас представляется… профессиональным наемником и предлагает Аллану убить пятерых — на его выбор и совершенно бесплатно. Расценив предложение как неудачную шутку, Аллан составляет список жертв. Но уже на следующий день попавшие в злополучный перечень начинают по очереди погибать… Преследуемый полицией и мучимый чувством вины, Аллан бросается наперегонки со временем, чтобы помешать убийце — ведь за месть всегда приходится расплачиваться.



    Качество: BDRemux 1080p
    Формат: MKV
    Видео: MPEG-4 AVC Video / 24930 kbps / 1080p / 23.976 fps / 16:9 / High Profile 4.1
    Аудио: Russian / Dolby Digital Audio / 5.1 / 48 kHz / 448kbps [R5]
    Аудио: Russian / Dolby Digital Audio / 5.1 / 48 kHz / 448kbps
    Аудио: English / DTS-HD Master Audio / 5.1 / 48 kHz / 2201 kbps / 16-bit (DTS Core: 5.1 / 48 kHz / 1509 kbps / 16-bit)

    MI

    General
    UniqueID                         : 220099800931135250811295932764107738483 (0xA595AE033957E863946CAD1C43168D73)
    Complete name                    : J:The.Hit.List.2011.1080p.Bluray.AVC.Remux.mkv
    Format                           : Matroska
    File size                        : 17.7 GiB
    Duration                         : 1h 30mn
    Overall bit rate                 : 28.0 Mbps
    Movie name                       : The.Hit.List.2011.1080p.Bluray.AVC.Remux
    Encoded date                     : UTC 2011-05-13 12:04:45
    Writing application              : mkvmerge v3.2.0 ("Beginnings") built on Feb 12 2010 16:46:17
    Writing library                  : libebml v0.7.9 + libmatroska v0.8.1

    Video
    ID                               : 1
    Format                           : AVC
    Format/Info                      : Advanced Video Codec
    Format profile                   : High@L4.1
    Format settings, CABAC           : Yes
    Format settings, ReFrames        : 2 frames
    Codec ID                         : V_MPEG4/ISO/AVC
    Duration                         : 1h 30mn
    Bit rate mode                    : Variable
    Width                            : 1 920 pixels
    Height                           : 1 080 pixels
    Display aspect ratio             : 16:9
    Frame rate                       : 23.976 fps
    Color space                      : YUV
    Chroma subsampling               : 4:2:0
    Bit depth                        : 8 bits
    Scan type                        : Progressive
    Title                            : uralmix

    Audio #1
    ID                               : 2
    Format                           : AC-3
    Format/Info                      : Audio Coding 3
    Mode extension                   : CM (complete main)
    Codec ID                         : A_AC3
    Duration                         : 1h 30mn
    Bit rate mode                    : Constant
    Bit rate                         : 448 Kbps
    Channel(s)                       : 6 channels
    Channel positions                : Front: L C R, Side: L R, LFE
    Sampling rate                    : 48.0 KHz
    Bit depth                        : 16 bits
    Compression mode                 : Lossy
    Stream size                      : 289 MiB (2%)
    Title                            : R5
    Language                         : Russian

    Audio #2
    ID                               : 3
    Format                           : AC-3
    Format/Info                      : Audio Coding 3
    Mode extension                   : CM (complete main)
    Codec ID                         : A_AC3
    Duration                         : 1h 30mn
    Bit rate mode                    : Constant
    Bit rate                         : 448 Kbps
    Channel(s)                       : 6 channels
    Channel positions                : Front: L C R, Side: L R, LFE
    Sampling rate                    : 48.0 KHz
    Bit depth                        : 16 bits
    Compression mode                 : Lossy
    Stream size                      : 289 MiB (2%)
    Title                            : двухголосый
    Language                         : Russian

    Audio #3
    ID                               : 4
    Format                           : DTS
    Format/Info                      : Digital Theater Systems
    Format profile                   : MA
    Codec ID                         : A_DTS
    Duration                         : 1h 30mn
    Bit rate mode                    : Variable
    Channel(s)                       : 6 channels
    Channel positions                : Front: L C R, Side: L R, LFE
    Sampling rate                    : 48.0 KHz
    Bit depth                        : 16 bits
    Compression mode                 : Lossy
    Language                         : English

    Text
    ID                               : 5
    Format                           : UTF-8
    Codec ID                         : S_TEXT/UTF8
    Codec ID/Info                    : UTF-8 Plain Text
    Language                         : English

    Menu
    00:00:00.000                     : en:00:00:00.000
    00:06:03.446                     : en:00:06:03.446
    00:12:35.797                     : en:00:12:35.797
    00:18:02.290                     : en:00:18:02.290
    00:27:34.611                     : en:00:27:34.611
    00:30:16.231                     : en:00:30:16.231
    00:36:13.713                     : en:00:36:13.713
    00:43:29.398                     : en:00:43:29.398
    00:48:08.969                     : en:00:48:08.969
    00:53:05.974                     : en:00:53:05.974
    00:57:47.464                     : en:00:57:47.464
    01:01:00.657                     : en:01:01:00.657
    01:05:52.073                     : en:01:05:52.073
    01:11:46.260                     : en:01:11:46.260
    01:17:30.020                     : en:01:17:30.020
    01:21:29.927                     : en:01:21:29.927
    Свернуть


    Похожие раздачи Искать похожие
    Инструкция по скачиванию
     1  Качаем uTorrent версии 2.0 и выше
     2  После установки, жмем выше под постером на ссылку Скачать [MediaGet] или Скачать .torrent
     3  Открываем скачанный файл через соответствующий клиент: MediaGet или uTorrent
     4  Ждем пока подключатся участники
     5  Качаем
    Комментарии о  Смертельный список / The Hit List | BDRemux 1080p 
    Ближайшее в кино
    Вверх