• Игры для PS4
  • Игры для PS3
  • Игры для XBOX360
  • Игры для PC
  • Игры для PS2
  • Игры для PSP
  • Для телефонов
  • Музыка
  • Книги / Журналы
  • Обои
  • Опрос
    Откуда Вы о нас узнали?
      0
    • От знакомых2,1,false,300,full
    • Из социальных сетей2,2,false,300,full
    • Из поисковых систем2,3,false,300,full
    • Другое2,4,false,300,full
    Статистика
    Всего онлайн -
    Гостей -
    Пользователей -
    Короли трекера
    
    Благодарности () Закрыть
    Быстрее загружает сайты Экономит интернет—трафик Меняет оформление страницы ВК Блокирует всю рекламу на сайтах Загружает торренты как µTorrent клиент Объеденяет все твои чаты из соц. сетей в один Проигрывает твою музыку не заходя во ВКонтакте
    Новый интернет-браузер
    Orbitum
    Скачать
    и многое другое... Подробности на сайте производителя
    Информация о фильме
    Название: Босх
    Оригинальное название: Bosch
    Год выпуска: 2018
    Страна: США
    Жанр: драма, детектив

    Перевод: Любительский [многоголосый] | KANSAI Studio
    Продолжительность: ~00:43:00
    В ролях: Титус Уэлливер, Джэми Гектор, Эми Акино, Эми Прайс-Фрэнсис, Энни Вершинг, Скотт Уилсон, Лэнс Реддик, Алан Розенберг, Валери Крус, Абрахам Бенруби и др.

    Описание:
    Гарри Босх – детектив от Бога. Человек, который упрятал не одного мерзавца за решётку. До службы в полиции ему пришлось повоевать во Вьетнаме, поэтому он прекрасно знает, что такое одержимость. Сейчас Босх работает в местном отделении полиции Лос-Анджелеса. Свою работу Гарри очень любит и старается выполнять добросовестно. Окружение детектива прекрасно знает, что за чтобы Босх не взялся, он обязательно доведёт это дело до конца и преступник получит сполна. Гарри не знает радостей, он не любит людей и полностью отдаётся своей работой, в перерывах предпочитает слушать джаз.
    И вот очередное дело подкидывает Босху головоломки. На этот раз ему придётся расследовать убийство одного популярного продюсера Голливуда. По мере расследования Гарри узнаёт, что продюсер проворачивал незаконные схемы с деньгами.

    Рейтинг:
    [img]https://u.myshows.me/r/36078.png[/img][img]http://i65.fastpic.ru/big/2015/0818/d4/744e99baca761b613f1a0bd93423bcd4.gif[/img]

    Качество: WEBDL 1080p | Bosch.S04.1080p.WEBDL.H264-DEFLATE
    Формат: MKV
    Видео: AVC, 1920x1080 (16:9), 9000 kbps, 23,976 fps, 0,181 bpp
    Аудио №1: русский / AC3 / 2.0 / 48 kHz / 192 kbps
    Аудио №2: английский / E-AC3 / 5.1 / 48 kHz / 640 kbps
    Реклама: Присутствует звуковая.

    ОтчетМедиаИнфо

    General
    Unique ID                                : 185500024612456402230330455154376858237 (0x8B8E0155594D659C903EB245ADEC5A7D)
    Complete name                            : G:_kansaitorBosch.S04.1080p.WEBDL-KANSAIBosch.S04E01.1080p.WEBDL-KANSAI.mkv
    Format                                   : Matroska
    Format version                           : Version 4 / Version 2
    File size                                : 3.36 GiB
    Duration                                 : 49 min 27 s
    Overall bit rate mode                    : Variable
    Overall bit rate                         : 9 737 kb/s
    Encoded date                             : UTC 2018-06-01 10:17:46
    Writing application                      : mkvmerge v6.7.0 ("Back to the Ground") 64bit built on Jan  8 2014 15:10:52
    Writing library                          : libebml v1.3.0 + libmatroska v1.4.1

    Video
    ID                                       : 1
    Format                                   : AVC
    Format/Info                              : Advanced Video Codec
    Format profile                           : High@L4
    Format settings                          : CABAC / 4 Ref Frames
    Format settings, CABAC                   : Yes
    Format settings, RefFrames               : 4 frames
    Codec ID                                 : V_MPEG4/ISO/AVC
    Duration                                 : 49 min 27 s
    Bit rate mode                            : Variable
    Bit rate                                 : 8 711 kb/s
    Maximum bit rate                         : 15.0 Mb/s
    Width                                    : 1 920 pixels
    Height                                   : 1 080 pixels
    Display aspect ratio                     : 16:9
    Frame rate mode                          : Constant
    Frame rate                               : 23.976 (24000/1001) FPS
    Color space                              : YUV
    Chroma subsampling                       : 4:2:0
    Bit depth                                : 8 bits
    Scan type                                : Progressive
    Bits/(Pixel*Frame)                       : 0.175
    Stream size                              : 3.01 GiB (89%)
    Language                                 : English
    Default                                  : Yes
    Forced                                   : No
    Color range                              : Limited
    Color primaries                          : BT.709
    Transfer characteristics                 : BT.709
    Matrix coefficients                      : BT.709

    Audio #1
    ID                                       : 2
    Format                                   : AC-3
    Format/Info                              : Audio Coding 3
    Codec ID                                 : A_AC3
    Duration                                 : 49 min 27 s
    Bit rate mode                            : Constant
    Bit rate                                 : 192 kb/s
    Channel(s)                               : 2 channels
    Channel positions                        : Front: L R
    Sampling rate                            : 48.0 kHz
    Frame rate                               : 31.250 FPS (1536 SPF)
    Bit depth                                : 16 bits
    Compression mode                         : Lossy
    Stream size                              : 67.9 MiB (2%)
    Title                                    : KANSAI Studio
    Language                                 : Russian
    Service kind                             : Complete Main
    Default                                  : Yes
    Forced                                   : No

    Audio #2
    ID                                       : 3
    Format                                   : E-AC-3
    Format/Info                              : Enhanced Audio Coding 3
    Codec ID                                 : A_EAC3
    Duration                                 : 49 min 27 s
    Bit rate mode                            : Constant
    Bit rate                                 : 640 kb/s
    Channel(s)                               : 6 channels
    Channel positions                        : Front: L C R, Side: L R, LFE
    Sampling rate                            : 48.0 kHz
    Frame rate                               : 187.500 FPS (256 SPF)
    Compression mode                         : Lossy
    Stream size                              : 226 MiB (7%)
    Language                                 : English
    Service kind                             : Complete Main
    Default                                  : No
    Forced                                   : No

    Text #1
    ID                                       : 4
    Format                                   : UTF-8
    Codec ID                                 : S_TEXT/UTF8
    Codec ID/Info                            : UTF-8 Plain Text
    Title                                    : English
    Language                                 : English
    Default                                  : No
    Forced                                   : No

    Text #2
    ID                                       : 5
    Format                                   : UTF-8
    Codec ID                                 : S_TEXT/UTF8
    Codec ID/Info                            : UTF-8 Plain Text
    Title                                    : English (SDH)
    Language                                 : English
    Default                                  : No
    Forced                                   : No
    Свернуть


    Инструкция по скачиванию
     1  Качаем uTorrent версии 2.0 и выше
     2  После установки, жмем выше под постером на ссылку Скачать [MediaGet] или Скачать .torrent
     3  Открываем скачанный файл через соответствующий клиент: MediaGet или uTorrent
     4  Ждем пока подключатся участники
     5  Качаем
    Комментарии о  Босх / Bosch [Сезон 04 | 01-02 серии из 10] | WEB-DL 1080p 
    Ближайшее в кино
    Вверх