• Игры для PS4
  • Игры для PS3
  • Игры для XBOX360
  • Игры для PC
  • Игры для PS2
  • Игры для PSP
  • Для телефонов
  • Музыка
  • Книги / Журналы
  • Обои
  • Опрос
    Откуда Вы о нас узнали?
      0
    • От знакомых2,1,false,300,full
    • Из социальных сетей2,2,false,300,full
    • Из поисковых систем2,3,false,300,full
    • Другое2,4,false,300,full
    Статистика
    Всего онлайн -
    Гостей -
    Пользователей -
    Короли трекера
    
    Благодарности () Закрыть
    Быстрее загружает сайты Экономит интернет—трафик Меняет оформление страницы ВК Блокирует всю рекламу на сайтах Загружает торренты как µTorrent клиент Объеденяет все твои чаты из соц. сетей в один Проигрывает твою музыку не заходя во ВКонтакте
    Новый интернет-браузер
    Orbitum
    Скачать
    и многое другое... Подробности на сайте производителя
    Информация о фильме
    Название: Гнев
    Оригинальное название: Man on Fire
    Год выхода: 2004
    Жанр:  боевик, триллер, драма, криминал
    Режиссер: Тони Скотт / Tony Scott
    В ролях: Дензел Вашингтон, Дакота Фаннинг, Кристофер Уокен, Марк Энтони, Рада Митчелл, Джанкарло Джаннини, Рейчел Тикотин, Хесус Очоа, Микки Рурк, Анджелина Пелаез

    О фильме:
    Состоятельные жители Мехико в панике: всего за шесть дней в городе пропали 24 человека! Бывшего агента ЦРУ Джона Кризи нанимают телохранителем девятилетней дочери промышленника Сэмюэля Рамоса, Питы Рамос. Поначалу Кризи с трудом терпит соседство не по годам развитой девочки.
    Но со временем они становятся друзьями. Кризи вновь почувствовал вкус к жизни, но все рушится, когда Питу похищают. Кризи клянется убить любого, кто втянут в похищение Питы. Теперь его никто не остановит...



    Страна: США, Великобритания
    Продолжительность: 02:26:15
    Перевод: Профессиональный (дублированный), Профессиональный (многоголосый, закадровый), Авторский (одноголосый, закадровый)

    Файл
    Кодек: x264
    Качество: WEB-DLRip-AVC | Open Matte
    Видео: High@L4.1, ~2710 Кбит/с, 1024x576,  23.976 кадр/с
    Аудио#1: 48 kHz, AC3, 3/2 (L,C,R,l,r) + LFE ch, ~448 |Дублированный|
    Аудио#2: 48 kHz, AC3, 2/0 (L,R) ch, ~192.00 kbps |Многоголосый закадровый, PTP|
    Аудио#3: 48 kHz, AC3, 3/2 (L,C,R,l,r) + LFE ch, ~448 |Одноголосый закадровый, Д. Пучков|
    Субтитры: русские (форсированные, полные)

    Blu-ray vs WEB DL Amazon

    Примечания
    Исходник видео WEB-DL Amazon Cinemax
    Open Matte версия фильма, имеет большее наполнение кадра, по сравнению с блюрэйСвернуть


    M/I
    General
    Unique ID                   : 200558496868642815569996534955036977181 (0x96E229563BA6726E0A011A1A2FE1281D)
    Complete name               : G:Видео_1Гнев_2004_WEB-DLRIP_AVC_O.M_[-=DoMiNo=-].mkv
    Format                      : Matroska
    Format version              : Version 4 / Version 2
    File size                   : 3.95 GiB
    Duration                    : 2 h 26 min
    Overall bit rate            : 3 864 kb/s
    Movie name                  : Гнев
    Encoded date                : UTC 2018-07-07 14:07:06
    Writing application         : mkvmerge v24.0.0 ("Beyond The Pale") 64-bit
    Writing library             : libebml v1.3.6 + libmatroska v1.4.9
    Attachments                 : poster.jpg

    Video
    ID                          : 1
    Format                      : AVC
    Format/Info                 : Advanced Video Codec
    Format profile              : High@L4.1
    Format settings             : CABAC / 10 Ref Frames
    Format settings, CABAC      : Yes
    Format settings, ReFrames   : 10 frames
    Codec ID                    : V_MPEG4/ISO/AVC
    Duration                    : 2 h 26 min
    Bit rate                    : 2 710 kb/s
    Width                       : 1 024 pixels
    Height                      : 576 pixels
    Display aspect ratio        : 16:9
    Frame rate mode             : Constant
    Frame rate                  : 23.976 (24000/1001) FPS
    Color space                 : YUV
    Chroma subsampling          : 4:2:0
    Bit depth                   : 8 bits
    Scan type                   : Progressive
    Bits/(Pixel*Frame)          : 0.192
    Stream size                 : 2.77 GiB (70%)
    Title                       : RIP_BY_-=DoMiNo=-
    Writing library             : x264 core 155 r2901M 7d0ff22
    Encoding settings           : cabac=1 / ref=10 / deblock=1:-3:-3 / analyse=0x3:0x133 / me=umh / subme=10 / psy=1 / psy_rd=1.00:0.10 / mixed_ref=1 / me_range=32 / chroma_me=1 / trellis=2 / 8x8dct=1 / cqm=0 / deadzone=21,11 / fast_pskip=1 / chroma_qp_offset=-3 / threads=6 / lookahead_threads=1 / sliced_threads=0 / nr=0 / decimate=1 / interlaced=0 / bluray_compat=0 / constrained_intra=0 / bframes=10 / b_pyramid=2 / b_adapt=2 / b_bias=0 / direct=3 / weightb=1 / open_gop=0 / weightp=2 / keyint=240 / keyint_min=24 / scenecut=40 / intra_refresh=0 / rc_lookahead=40 / rc=crf / mbtree=1 / crf=20.5 / qcomp=0.60 / qpmin=15 / qpmax=69 / qpstep=4 / ip_ratio=1.40 / aq=1:1.00
    Language                    : English
    Default                     : Yes
    Forced                      : No
    Color range                 : Limited
    Color primaries             : BT.709
    Transfer characteristics    : BT.709
    Matrix coefficients         : BT.709

    Audio #1
    ID                          : 2
    Format                      : AC-3
    Format/Info                 : Audio Coding 3
    Codec ID                    : A_AC3
    Duration                    : 2 h 26 min
    Bit rate mode               : Constant
    Bit rate                    : 448 kb/s
    Channel(s)                  : 6 channels
    Channel positions           : Front: L C R, Side: L R, LFE
    Sampling rate               : 48.0 kHz
    Frame rate                  : 31.250 FPS (1536 SPF)
    Bit depth                   : 16 bits
    Compression mode            : Lossy
    Stream size                 : 469 MiB (12%)
    Title                       : DUB
    Language                    : Russian
    Service kind                : Complete Main
    Default                     : Yes
    Forced                      : No

    Audio #2
    ID                          : 3
    Format                      : AC-3
    Format/Info                 : Audio Coding 3
    Codec ID                    : A_AC3
    Duration                    : 2 h 26 min
    Bit rate mode               : Constant
    Bit rate                    : 256 kb/s
    Channel(s)                  : 2 channels
    Channel positions           : Front: L R
    Sampling rate               : 48.0 kHz
    Frame rate                  : 31.250 FPS (1536 SPF)
    Bit depth                   : 16 bits
    Compression mode            : Lossy
    Stream size                 : 268 MiB (7%)
    Title                       : MVO_РТР
    Language                    : Russian
    Service kind                : Complete Main
    Default                     : No
    Forced                      : No

    Audio #3
    ID                          : 4
    Format                      : AC-3
    Format/Info                 : Audio Coding 3
    Codec ID                    : A_AC3
    Duration                    : 2 h 26 min
    Bit rate mode               : Constant
    Bit rate                    : 448 kb/s
    Channel(s)                  : 6 channels
    Channel positions           : Front: L C R, Side: L R, LFE
    Sampling rate               : 48.0 kHz
    Frame rate                  : 31.250 FPS (1536 SPF)
    Bit depth                   : 16 bits
    Compression mode            : Lossy
    Stream size                 : 469 MiB (12%)
    Title                       : AVO_ Д. Пучков
    Language                    : Russian
    Service kind                : Complete Main
    Default                     : No
    Forced                      : No

    Text #1
    ID                          : 5
    Format                      : UTF-8
    Codec ID                    : S_TEXT/UTF8
    Codec ID/Info               : UTF-8 Plain Text
    Duration                    : 2 h 18 min
    Bit rate                    : 8 b/s
    Count of elements           : 208
    Stream size                 : 8.49 KiB (0%)
    Title                       : RUS_forced
    Language                    : Russian
    Default                     : Yes
    Forced                      : Yes

    Text #2
    ID                          : 6
    Format                      : UTF-8
    Codec ID                    : S_TEXT/UTF8
    Codec ID/Info               : UTF-8 Plain Text
    Duration                    : 2 h 18 min
    Bit rate                    : 61 b/s
    Count of elements           : 1074
    Stream size                 : 62.7 KiB (0%)
    Title                       : RUS_full
    Language                    : Russian
    Default                     : No
    Forced                      : No

    Menu
    00:00:00.000                : :Глава 1
    00:12:49.769                : :Глава 2
    00:25:15.514                : :Глава 3
    00:38:08.453                : :Глава 4
    00:50:53.050                : :Глава 5
    01:03:17.043                : :Глава 6
    01:16:11.108                : :Глава 7
    01:28:55.455                : :Глава 8
    01:42:10.958                : :Глава 9
    01:54:31.323                : :Глава 10
    02:07:39.694                : :Глава 11
    02:20:24.458                : :Глава 12Свернуть


    Скриншоты
    [screen]http://i3.imageban.ru/out/2018/07/07/615f31261883fcb53acae5f5685e85fc.png[/screen][screen]http://i6.imageban.ru/out/2018/07/07/790147cc4bfc890e35d76e1ecca17b4d.png[/screen][screen]http://i2.imageban.ru/out/2018/07/07/0e9221299807c702923d7a5ae49f3675.png[/screen][screen]http://i4.imageban.ru/out/2018/07/07/160859dd78e64bdfb776fe8f91f84f1f.png[/screen][screen]http://i4.imageban.ru/out/2018/07/07/ea03ab939b7c4bd5ba8250741a087081.png[/screen][screen]http://i6.imageban.ru/out/2018/07/07/a6d04a0d4db1f196e93cc11b80babbf3.png[/screen][screen]http://i2.imageban.ru/out/2018/07/07/5843e961beed6848f3b6b2ceb789319f.png[/screen][screen]http://i3.imageban.ru/out/2018/07/07/80d6b25036dbc61e35d5fbc281ddb311.png[/screen][screen]http://i1.imageban.ru/out/2018/07/07/911265f5b38063e5e01eef45d79bb31d.png[/screen][screen]http://i1.imageban.ru/out/2018/07/07/607838b5cc4b0600677d78dabcc0614b.png[/screen]Свернуть
    Похожие раздачи Искать похожие
    Инструкция по скачиванию
     1  Качаем uTorrent версии 2.0 и выше
     2  После установки, жмем выше под постером на ссылку Скачать [MediaGet] или Скачать .torrent
     3  Открываем скачанный файл через соответствующий клиент: MediaGet или uTorrent
     4  Ждем пока подключатся участники
     5  Качаем
    Комментарии о  Гнев / Man on Fire | WEB-DLRip-AVC 
    Ближайшее в кино
    Вверх