• Игры для PS4
  • Игры для PS3
  • Игры для XBOX360
  • Игры для PC
  • Игры для PS2
  • Игры для PSP
  • Для телефонов
  • Музыка
  • Книги/Журналы
  • Обои
  •  
    Опрос
    Удобен ли сайт в использовании?
      0
    • Очень удобен, все понятно1,1,false,300,full
    • Удобен1,2,false,300,full
    • Средне1,3,false,300,full
    • Неудобен, трудно ориентироваться1,4,false,300,full
    • Совсем неудобен1,5,false,300,full
    Статистика
    Загрузка...
    Легенда о Гранкресте / Grancrest Senki [Сезон 01] | WEBRip 720p
    Статус  Проверено
    В закладки
    Модератор: Max

    Легенда о Гранкресте / Grancrest Senki [Сезон 01] | WEBRip 720p [Фильмы 2018] скачать торрентом/torrent бесплатно

    Год выхода
    Язык
    Закачал
    Аноним | 07 июля в 18ч 06м 59с
    Раздел
    Отзывов
    0
    Раздают: 23 Качают: 3 Скачали: 87 Размер: 9.53 GB
    Инфо о раздаче | Благодарности |
    0/5
    0
    0 5 0
    Поддержи нас — расскажи друзьям!
    Orbitum
    Новый интернет-браузер Быстрее загружает сайты Экономит интернет—трафик Меняет оформление страницы ВК Блокирует всю рекламу на сайтах Загружает торренты как

    µTorrent

    клиент
    Объеденяет все твои чаты из соц. сетей в один Проигрывает твою музыку не заходя во ВКонтакте
    Скачать и многое другое... Подробности на сайте производителя
    Информация о фильме
    Название: Легенда о Гранкресте
    Оригинальное название: Grancrest Senki
    Год выхода: 2018
    Жанр: приключения, фэнтези
    Режиссер: Омата Синъити
    Художник: Като Хироси
    В ролях: Кумагай Кэнтаро, Кито Акари, Накамура Юйти, Уэда Рэйна, Такамори Нацуми, Хино Сатоси, Мацуока Ёсицугу, Кайда Юко, Сакурай Такахиро
    О фильме:
    История разворачивается на континенте во власти хаоса, порождающего великие бедствия, однако у владык континента есть мощь «Герба» (метки Святого), что может усмирить хаос и защитить людей. Но однажды правители отрекаются от клятвы защищать свой народ и начинают войну за господство на континенте.Главные герои — маг-отшельник Силука, презирающая владык за отречение от клятвы, и странствующий рыцарь Тео, надеющийся в своих скитаниях обрести силу и освободить родной город от гнёта тирании. Герои дают друг другу нерушимую клятву вместе избавить континент от войн и хаоса.

    [img]http://s019.radikal.ru/i629/1603/30/d07b2aa23e54.gif[/img]
    World Art | MAL

    Страна: Япония
    Студия: A-1 Pictures Inc.
    Продолжительность: 00:23:40
    Язык: Русский, Японский
    Перевод: Профессиональный (многоголосый закадровый), Любительский (двухголосый, закадровый)

    Файл
    Качество: WEBRip
    Формат: MKV
    Кодек: H.264
    Аудио кодек: AAC
    Видео: 1280x720, 23.976 fps, 1800 kbps
    Аудио RUS: 48.0 kHz, AAC, 2 ch, 192 kbps - Back Board Cinema
    Аудио RUS: 48.0 kHz, AAC, 2 ch, 192 kbps - SHIZA Project
    Аудио JAP: 44.1 kHz, AAC, 2 ch, 128 kbps
    Субтитры: русские (встроенные полный перевод, ASS) - SovetRomantica

    Озвучка

    Озвучивание: Татьяна Борзова, Александр Русаков, Ирина Зиновкина, Иван Породнов, Влад Дуров
    Перевод: Михаил Локтионов, Алла Локтионова, Николай Чесноков, Юлия Парамонова

    Озвучивание: nDrOiDze, Lianna (01-07), Лизавета (08-24)
    Перевод: MedusaSub (01-11), Sovetromantica (12-24)
    Тайминг и работа со звуком: Foxy (01-06;16-24), yungcvhr (07-11) Soya Jones (12-15)




    Список серий
    01. Контракт
    02. Амбиции
    03. Боевое знамя
    04. Решение
    05. Лес вечной тьмы
    06. Маршировка
    07. Белый принц
    08. Танец встреч
    09. Черная принцесса
    10. Лезвие измены
    11. Падение замка единорога
    12. Подписанный договор
    13. Родные земли
    14. Освободитель Шистины
    15. Возвращение
    16. Фарт-пост
    17. Два героя
    18. Лидер
    19. Пробуждение Знати
    20. Решающее сражение трёх сил
    21. Чистка
    22. Святой Грааль
    23. Стены замка
    24. Великая печать


    MediaInfo
    General
    Format : Matroska
    Format version : Version 4 / Version 2
    File size : 408 MiB
    Duration : 23 min
    Overall bit rate : 2 405 kb/s
    Encoded date : UTC 2018-06-28 07:18:41
    Writing application : mkvmerge v8.3.0 ("Over the Horizon") 64bit
    Writing library : libebml v1.3.1 + libmatroska v1.4.2
    Attachments : arial.ttf / arialbd.ttf / arialbi.ttf / Bankir-Retro.ttf / cambriab.ttf / cambriaz.ttf / PS_____R.TTF / stylo.ttf

    Video
    ID : 1
    Format : AVC
    Format/Info : Advanced Video Codec
    Format profile : High@L4
    Format settings, CABAC : Yes
    Format settings, ReFrames : 6 frames
    Codec ID : V_MPEG4/ISO/AVC
    Duration : 23 min
    Bit rate : 1 776 kb/s
    Width : 1 280 pixels
    Height : 720 pixels
    Display aspect ratio : 16:9
    Frame rate mode : Variable
    Frame rate : 23.976 (23976/1000) FPS
    Color space : YUV
    Chroma subsampling : 4:2:0
    Bit depth : 8 bits
    Scan type : Progressive
    Bits/(Pixel*Frame) : 0.080
    Stream size : 299 MiB (73%)
    Writing library : x264 core 120 r2120 0c7dab9
    Encoding settings : cabac=1 / ref=6 / deblock=1:1:1 / analyse=0x3:0x113 / me=umh / subme=8 / psy=1 / psy_rd=0.40:0.00 / mixed_ref=1 / me_range=16 / chroma_me=1 / trellis=1 / 8x8dct=1 / cqm=0 / deadzone=21,11 / fast_pskip=1 / chroma_qp_offset=-2 / threads=4 / sliced_threads=0 / nr=0 / decimate=1 / interlaced=0 / bluray_compat=0 / constrained_intra=0 / bframes=3 / b_pyramid=2 / b_adapt=2 / b_bias=0 / direct=3 / weightb=1 / open_gop=0 / weightp=2 / keyint=250 / keyint_min=23 / scenecut=40 / intra_refresh=0 / rc_lookahead=50 / rc=2pass / mbtree=1 / bitrate=1776 / ratetol=1.0 / qcomp=0.60 / qpmin=0 / qpmax=69 / qpstep=4 / cplxblur=20.0 / qblur=0.5 / vbv_maxrate=3552 / vbv_bufsize=8880 / nal_hrd=none / ip_ratio=1.40 / aq=1:0.60
    Default : Yes
    Forced : No

    Audio #1
    ID : 2
    Format : AAC
    Format/Info : Advanced Audio Codec
    Format profile : LC
    Codec ID : A_AAC
    Duration : 23 min
    Bit rate : 192 kb/s
    Channel(s) : 2 channels
    Channel positions : Front: L R
    Sampling rate : 48.0 kHz
    Frame rate : 46.875 FPS (1024 spf)
    Compression mode : Lossy
    Stream size : 32.1 MiB (8%)
    Title : Back Board Cinema
    Language : Russian
    Default : Yes
    Forced : No

    Audio #2
    ID : 3
    Format : AAC
    Format/Info : Advanced Audio Codec
    Format profile : LC
    Codec ID : A_AAC
    Duration : 23 min
    Bit rate : 295 kb/s
    Channel(s) : 2 channels
    Channel positions : Front: L R
    Sampling rate : 48.0 kHz
    Frame rate : 46.875 FPS (1024 spf)
    Compression mode : Lossy
    Stream size : 50.1 MiB (12%)
    Title : SHIZA Project
    Language : Russian
    Default : No
    Forced : No

    Audio #3
    ID : 4
    Format : AAC
    Format/Info : Advanced Audio Codec
    Format profile : LC
    Codec ID : A_AAC
    Duration : 23 min
    Bit rate : 128 kb/s
    Channel(s) : 2 channels
    Channel positions : Front: L R
    Sampling rate : 44.1 kHz
    Frame rate : 43.066 FPS (1024 spf)
    Compression mode : Lossy
    Stream size : 21.7 MiB (5%)
    Title : Original
    Language : Japanese
    Default : No
    Forced : No

    Text
    ID : 5
    Format : ASS
    Codec ID : S_TEXT/ASS
    Codec ID/Info : Advanced Sub Station Alpha
    Duration : 23 min
    Bit rate : 116 b/s
    Count of elements : 252
    Compression mode : Lossless
    Stream size : 20.1 KiB (0%)
    Title : Полные субтитры - SovetRomantica
    Language : Russian
    Default : Yes
    Forced : No
    Еще похожие »

    Как скачать?
    1. Качаем UTorrent версии 2.0 и выше отсюда
    2. После установки, жмем на ссылку Скачать торрент.
    3. Открываем его через utorrent.
    4. Ждем пока подключатся участники.
    5. Качаем.


    Комментарии о Легенда о Гранкресте / Grancrest Senki [Сезон 01] | WEBRip 720p
    Добавлять комментарии могут только зарегистрированные пользователи

    Зарегистрироваться или Войти


    Ближайшее в кино
    • Миссия невыполнима: Последствия дата выхода 26 июля 2018Миссия невыполнима: Последствия
      Дата выхода: 26 июля 2018
    • 992614|Обитатели|26 июля 2018|200|300Обитатели
      Дата выхода: 26 июля 2018
    • 854458|Белль и Себастьян: Приключения продолжаются|26 июля 2018|200|300Белль и Себастьян: Приключения продолжаются
      Дата выхода: 26 июля 2018
    • 1008732|Мектуб, моя любовь|26 июля 2018|200|300Мектуб, моя любовь
      Дата выхода: 26 июля 2018
    • 1049478|Убежище дьявола|26 июля 2018|200|300Убежище дьявола
      Дата выхода: 26 июля 2018
    • 1067608|Свидетели|26 июля 2018|200|300Свидетели
      Дата выхода: 26 июля 2018
    • 1049447|Юные титаны, вперед!|26 июля 2018|200|300Юные титаны, вперед!
      Дата выхода: 26 июля 2018
    • 933307|Опасная игра Слоун|2 августа 2018|200|300Опасная игра Слоун
      Дата выхода: 2 августа 2018
    • 1002701|Кодекс Готти|2 августа 2018|200|300Кодекс Готти
      Дата выхода: 2 августа 2018
    • 1021671|Судная ночь. Начало|2 августа 2018|200|300Судная ночь. Начало
      Дата выхода: 2 августа 2018
    • 928993|Жаркие летние ночи|2 августа 2018|200|300Жаркие летние ночи
      Дата выхода: 2 августа 2018
    • 1033352|Кристофер Робин|2 августа 2018|200|300Кристофер Робин
      Дата выхода: 2 августа 2018
    • 1029675|Голодные Z|2 августа 2018|200|300Голодные Z
      Дата выхода: 2 августа 2018
    • 1006101|Шпионская игра|2 августа 2018|200|300Шпионская игра
      Дата выхода: 2 августа 2018
    • 1066418|Мальчишник в Европе|2 августа 2018|200|300Мальчишник в Европе
      Дата выхода: 2 августа 2018
    Вверх