• Игры для PS4
  • Игры для PS3
  • Игры для XBOX360
  • Игры для PC
  • Игры для PS2
  • Игры для PSP
  • Для телефонов
  • Музыка
  • Книги / Журналы
  • Обои
  • Опрос
    Удобен ли сайт в использовании?
      0
    • Очень удобен, все понятно1,1,false,300,full
    • Удобен1,2,false,300,full
    • Средне1,3,false,300,full
    • Неудобен, трудно ориентироваться1,4,false,300,full
    • Совсем неудобен1,5,false,300,full
    Статистика
    Всего онлайн -
    Гостей -
    Пользователей -
    Короли трекера
    
    Благодарности () Закрыть
    Быстрее загружает сайты Экономит интернет—трафик Меняет оформление страницы ВК Блокирует всю рекламу на сайтах Загружает торренты как µTorrent клиент Объеденяет все твои чаты из соц. сетей в один Проигрывает твою музыку не заходя во ВКонтакте
    Новый интернет-браузер
    Orbitum
    Скачать
    и многое другое... Подробности на сайте производителя
    Информация о фильме
    Название: Реквием по вампиру
    Оригинальное название: Vierges et vampires
    Год выхода: 1971
    Жанр: Ужасы, эротика
    Режиссер: Жан Роллен
    В ролях: Мари-Пьер Кастель, Мирей Д"Аржент, Доминик, Луис Доур, Виктор Уэбстер, Мишель Дэлесаль, Доминик Туссен

    О фильме:
    Две нимфетки-беглянки попали в развалины замка, где обитал последний из рода вампиров со своими приспешницами и слугами-дикарями. Девчонок решили «посвятить» в вампиров, а пока они не потеряли человеческий облик, им надлежало заманивать в замок новых жертв...



    Страна: Франция
    Студия: Les Films ABC
    Продолжительность: 01:26:52
    Перевод: Авторский одноголосый | Антон Алексеев

    Файл
    Кодек: x.264
    Качество: BDRip 1080p
    Видео: MPEG-4 AVC, 1760x1080, 13.9 Mбит/с, 23.976 кадр/с
    Звук:
    Аудио #1: Русский ( АС3, 2ch, 224 Кбит/с, 48.0 KHz) Авторский (одноголосый, закадровый) Антон Алексеев
    Аудио #2: Французский ( АС3, 2ch, 224 Кбит/с, 48.0 KHz)
    Аудио #3: Английский ( АС3, 2ch, 224 Кбит/с, 48.0 KHz)
    Субтитры: английские
    MediaInfo
    Источник: Requiem.For.A.Vampire.1971.REMASTERED.1080p.BluRay.x264-CREEPSHOW
    General
    Unique ID                      : 250186078232862600596531761112060902528 (0xBC3816026022FD56AA7A0B875791BC80)
    Complete name                  : Requiem.For.A.Vampire.1971.BDRip.1080p.mkv
    Format                         : Matroska
    Format version                 : Version 4 / Version 2
    File size                      : 8.84 GiB
    Duration                       : 1 h 26 min
    Overall bit rate               : 14.6 Mb/s
    Encoded date                   : UTC 2018-07-07 12:39:46
    Writing application            : mkvmerge v7.1.0 ("Good Love") 64bit built on Jul 27 2014 13:06:55
    Writing library                : libebml v1.3.0 + libmatroska v1.4.1

    Video
    ID                             : 1
    Format                         : AVC
    Format/Info                    : Advanced Video Codec
    Format profile                 : High@L4.1
    Format settings                : CABAC / 4 Ref Frames
    Format settings, CABAC         : Yes
    Format settings, ReFrames      : 4 frames
    Codec ID                       : V_MPEG4/ISO/AVC
    Duration                       : 1 h 26 min
    Bit rate                       : 13.9 Mb/s
    Width                          : 1 760 pixels
    Height                         : 1 080 pixels
    Display aspect ratio           : 16:10
    Frame rate mode                : Constant
    Frame rate                     : 23.976 (24000/1001) FPS
    Color space                    : YUV
    Chroma subsampling             : 4:2:0
    Bit depth                      : 8 bits
    Scan type                      : Progressive
    Bits/(Pixel*Frame)             : 0.305
    Stream size                    : 8.43 GiB (95%)
    Writing library                : x264 core 155 r2901 7d0ff22
    Encoding settings              : cabac=1 / ref=4 / deblock=1:-2:-2 / analyse=0x3:0x133 / me=umh / subme=9 / psy=1 / psy_rd=1.00:0.00 / mixed_ref=1 / me_range=16 / chroma_me=1 / trellis=2 / 8x8dct=1 / cqm=0 / deadzone=21,11 / fast_pskip=0 / chroma_qp_offset=-2 / threads=12 / lookahead_threads=1 / sliced_threads=0 / nr=0 / decimate=1 / interlaced=0 / bluray_compat=0 / constrained_intra=0 / bframes=3 / b_pyramid=2 / b_adapt=2 / b_bias=0 / direct=3 / weightb=1 / open_gop=0 / weightp=2 / keyint=240 / keyint_min=23 / scenecut=40 / intra_refresh=0 / rc_lookahead=50 / rc=2pass / mbtree=1 / bitrate=13900 / ratetol=1.0 / qcomp=0.60 / qpmin=0 / qpmax=69 / qpstep=4 / cplxblur=20.0 / qblur=0.5 / vbv_maxrate=62500 / vbv_bufsize=78125 / nal_hrd=none / filler=0 / ip_ratio=1.40 / aq=1:0.70
    Language                       : English
    Default                        : Yes
    Forced                         : No

    Audio #1
    ID                             : 2
    Format                         : AC-3
    Format/Info                    : Audio Coding 3
    Codec ID                       : A_AC3
    Duration                       : 1 h 26 min
    Bit rate mode                  : Constant
    Bit rate                       : 224 kb/s
    Channel(s)                     : 2 channels
    Channel positions              : Front: L R
    Sampling rate                  : 48.0 kHz
    Frame rate                     : 31.250 FPS (1536 SPF)
    Bit depth                      : 16 bits
    Compression mode               : Lossy
    Stream size                    : 139 MiB (2%)
    Language                       : Russian
    Service kind                   : Complete Main
    Default                        : Yes
    Forced                         : No

    Audio #2
    ID                             : 3
    Format                         : AC-3
    Format/Info                    : Audio Coding 3
    Codec ID                       : A_AC3
    Duration                       : 1 h 26 min
    Bit rate mode                  : Constant
    Bit rate                       : 224 kb/s
    Channel(s)                     : 2 channels
    Channel positions              : Front: L R
    Sampling rate                  : 48.0 kHz
    Frame rate                     : 31.250 FPS (1536 SPF)
    Bit depth                      : 16 bits
    Compression mode               : Lossy
    Stream size                    : 139 MiB (2%)
    Language                       : French
    Service kind                   : Complete Main
    Default                        : No
    Forced                         : No

    Audio #3
    ID                             : 4
    Format                         : AC-3
    Format/Info                    : Audio Coding 3
    Codec ID                       : A_AC3
    Duration                       : 1 h 26 min
    Bit rate mode                  : Constant
    Bit rate                       : 224 kb/s
    Channel(s)                     : 2 channels
    Channel positions              : Front: L R
    Sampling rate                  : 48.0 kHz
    Frame rate                     : 31.250 FPS (1536 SPF)
    Bit depth                      : 16 bits
    Compression mode               : Lossy
    Stream size                    : 139 MiB (2%)
    Language                       : English
    Service kind                   : Complete Main
    Default                        : No
    Forced                         : No

    Text
    ID                             : 5
    Format                         : UTF-8
    Codec ID                       : S_TEXT/UTF8
    Codec ID/Info                  : UTF-8 Plain Text
    Duration                       : 1 h 23 min
    Bit rate                       : 8 b/s
    Count of elements              : 202
    Stream size                    : 5.36 KiB (0%)
    Language                       : English
    Default                        : No
    Forced                         : No

    Menu
    00:00:00.000                   : en:00:00:00.000
    00:08:27.507                   : en:00:08:27.507
    00:16:23.983                   : en:00:16:23.983
    00:20:45.244                   : en:00:20:45.244
    00:28:46.725                   : en:00:28:46.725
    00:35:29.127                   : en:00:35:29.127
    00:42:34.552                   : en:00:42:34.552
    00:49:56.994                   : en:00:49:56.994
    00:56:54.411                   : en:00:56:54.411
    01:05:50.947                   : en:01:05:50.947
    01:11:36.292                   : en:01:11:36.292
    01:19:00.736                   : en:01:19:00.736Свернуть


    Инструкция по скачиванию
     1  Качаем uTorrent версии 2.0 и выше
     2  После установки, жмем выше под постером на ссылку Скачать [MediaGet] или Скачать .torrent
     3  Открываем скачанный файл через соответствующий клиент: MediaGet или uTorrent
     4  Ждем пока подключатся участники
     5  Качаем
    Комментарии о  Реквием по вампиру / Vierges et vampires | BDRip 1080p 
    Ближайшее в кино
    Вверх