• Игры для PS4
  • Игры для PS3
  • Игры для XBOX360
  • Игры для PC
  • Игры для PS2
  • Игры для PSP
  • Для телефонов
  • Музыка
  • Книги / Журналы
  • Обои
  • Опрос
    Удобен ли сайт в использовании?
      0
    • Очень удобен, все понятно1,1,false,300,full
    • Удобен1,2,false,300,full
    • Средне1,3,false,300,full
    • Неудобен, трудно ориентироваться1,4,false,300,full
    • Совсем неудобен1,5,false,300,full
    Статистика
    Всего онлайн -
    Гостей -
    Пользователей -
    Короли трекера
    
    Благодарности () Закрыть
    Быстрее загружает сайты Экономит интернет—трафик Меняет оформление страницы ВК Блокирует всю рекламу на сайтах Загружает торренты как µTorrent клиент Объеденяет все твои чаты из соц. сетей в один Проигрывает твою музыку не заходя во ВКонтакте
    Новый интернет-браузер
    Orbitum
    Скачать
    и многое другое... Подробности на сайте производителя
    Страна: США, Германия
    Студия: Bounty Partnership/Image Organization/Westwind Productions
    Жанр:  боевик
    Год выпуска: 1993
    Продолжительность: 01:26:31

    Перевод 1: Профессиональный (многоголосый закадровый) R5
    Перевод 2: Профессиональный (двухголосый закадровый) ТВЦ
    Перевод 3: Авторский (одноголосый закадровый) Гаврилов
    Перевод 4: Авторский (одноголосый закадровый) Володарский
    Субтитры: русские
    Оригинальная аудиодорожка: английский

    Режиссер: Курт Андерсон / Kurt Anderson

    В ролях: Лоренцо Ламас, Маттиас Хьюз, Синди Пасс, Джордж Перес, Эрик Манскер, Брукс Гарднер

    Описание: Чикагский охотник за головами Джонатан Дамон приезжает в гости к своему брату Полу в Лос-Анджелес и обнаруживает, что тот попал в заварушку с полицией и крупными гангстерами. Дело в том, что партнер Пола по бизнесу вел незаконные торговые махинации с гангстерами, глава которых недавно был арестован и через три дня должен предстать перед судом. Бандитам удается убить партнера Пола, но теперь он сам является свидетелем, которого тщательно охраняет полиция. Вот только стражи закона недооценивают могущество своего противника, ибо бандитам удается проникнуть в дом Пола и убить его на глазах брата. Джонатан, естественно, отправляется творить кровавую месть…
    Неплохой боевик. Причем режиссер картин Курт Андерсон, снявший всего шесть фильмов, успел поработать с такими мастерами боевых искусств как Синтия Ротрок, Билли Драго и Джефф Уинкотт.



    Тип релиза: DVD5 (Custom)
    Контейнер: DVD-Video

    Видео: PAL 4:3 (720x576) VBR
    Аудио 1: Russian (Dolby AC3, 384 Кбит/сек, 6 ch) | R5
    Аудио 2: Russian (Dolby AC3, 192 Кбит/сек, 2 ch) | ТВЦ
    Аудио 3: Russian (Dolby AC3, 192 Кбит/сек, 2 ch) | Гаврилов
    Аудио 4: Russian (Dolby AC3, 192 Кбит/сек, 2 ch) | Володарский
    Аудио 5: English (Dolby AC3, 384 Кбит/сек, 6 ch)  | Original
    Формат субтитров: prerendered (DVD/IDX+SUB)
    DVDInfo

    Title: Bounty Tracker_1993
    Size: 4.31 Gb ( 4 522 088,00 KBytes ) - DVD-5
    Enabled regions: 1, 2, 3, 4, 5, 6, 7, 8

    VTS_01 :
    Play Length: 01:26:31
    Video: PAL 4:3 (720x576) VBR
    Audio:
    Russian, AC3, 3/2 (L,C,R,SL,SR)+LFE ch, 384 kbps, Delay 0 mSec
    Russian, AC3, 2/0 (L,R) ch, 192 kbps, Delay 0 mSec
    Russian, AC3, 2/0 (L,R) ch, 192 kbps, Delay 0 mSec
    Russian, AC3, 2/0 (L,R) ch, 192 kbps, Delay 0 mSec
    English, AC3, 3/2 (L,C,R,SL,SR)+LFE ch, 384 kbps, Delay 0 mSec

    Subtitles:
    Russian

    * Menus Information *

    VIDEO_TS Menu
    Video:
    PAL 4:3 (720x576) VBR
    Language Unit :
    Title Menu

    VTS_01 Menu
    Video:
    PAL 4:3 (720x576) VBR
    Audio:
    Not specified (Dolby AC3, 2 ch)
    Russian Language Unit :
    Root Menu
    Свернуть


    MediaInfo

    Общее
    Полное имя                               : D:DVD готовыеBounty Tracker_1993VIDEO_TSVTS_01_1.VOB
    Формат                                   : MPEG-PS
    Размер файла                             : 1024 Мбайт
    Продолжительность                        : 20 м.
    Режим общего битрейта                    : Переменный
    Общий поток                              : 6917 Кбит/сек

    Видео
    Идентификатор                            : 224 (0xE0)
    Формат                                   : MPEG Video
    Версия формата                           : Version 2
    Профиль формата                          : Main@Main
    Параметр BVOP формата                    : Да
    Параметр матрицы формата                 : Выборочная
    Параметр GOP формата                     : M=3, N=12
    Структура изображения                    : Frame
    Продолжительность                        : 20 м.
    Вид битрейта                             : Переменный
    Битрейт                                  : 5435 Кбит/сек
    Максимальный битрейт                     : 8500 Кбит/сек
    Ширина                                   : 720 пикселей
    Высота                                   : 576 пикселей
    Соотношение сторон                       : 4:3
    Частота кадров                           : 25,000 кадров/сек
    Стандарт вещания                         : PAL
    Цветовое пространство                    : YUV
    Субдискретизация насыщенности            : 4:2:0
    Битовая глубина                          : 8 бит
    Тип развёртки                            : Чересстрочная
    Порядок развёртки                        : Верхнее поле первое
    Метод сжатия                             : С потерями
    Бит/(Пиксели*Кадры)                      : 0.524
    Временной код первого кадра              : 00:00:00:00
    Оригинал временного кода                 : Group of pictures header
    GOP, открыто/закрыто                     : Открыто
    GOP, открыто/закрыто на первом кадре     : Закрыто
    Размер потока                            : 805 Мбайт (79%)

    Аудио #1
    Идентификатор                            : 189 (0xBD)-128 (0x80)
    Формат                                   : AC-3
    Формат/Информация                        : Audio Coding 3
    Расширение режима                        : CM (complete main)
    Параметр Endianness формата              : Big
    Режим смешивания                         : DVD-Video
    Продолжительность                        : 20 м.
    Вид битрейта                             : Постоянный
    Битрейт                                  : 384 Кбит/сек
    Каналы                                   : 6 каналов
    Расположение каналов                     : Front: L C R, Side: L R, LFE
    Частота                                  : 48,0 КГц
    Метод сжатия                             : С потерями
    Размер потока                            : 56,8 Мбайт (6%)

    Аудио #2
    Идентификатор                            : 189 (0xBD)-129 (0x81)
    Формат                                   : AC-3
    Формат/Информация                        : Audio Coding 3
    Расширение режима                        : CM (complete main)
    Параметр Endianness формата              : Big
    Режим смешивания                         : DVD-Video
    Продолжительность                        : 20 м.
    Вид битрейта                             : Постоянный
    Битрейт                                  : 192 Кбит/сек
    Каналы                                   : 2 канала
    Расположение каналов                     : Front: L R
    Частота                                  : 48,0 КГц
    Метод сжатия                             : С потерями
    Размер потока                            : 28,4 Мбайт (3%)

    Аудио #3
    Идентификатор                            : 189 (0xBD)-130 (0x82)
    Формат                                   : AC-3
    Формат/Информация                        : Audio Coding 3
    Расширение режима                        : CM (complete main)
    Параметр Endianness формата              : Big
    Режим смешивания                         : DVD-Video
    Продолжительность                        : 20 м.
    Вид битрейта                             : Постоянный
    Битрейт                                  : 192 Кбит/сек
    Каналы                                   : 2 канала
    Расположение каналов                     : Front: L R
    Частота                                  : 48,0 КГц
    Метод сжатия                             : С потерями
    Размер потока                            : 28,4 Мбайт (3%)

    Аудио #4
    Идентификатор                            : 189 (0xBD)-131 (0x83)
    Формат                                   : AC-3
    Формат/Информация                        : Audio Coding 3
    Расширение режима                        : CM (complete main)
    Параметр Endianness формата              : Big
    Режим смешивания                         : DVD-Video
    Продолжительность                        : 20 м.
    Вид битрейта                             : Постоянный
    Битрейт                                  : 192 Кбит/сек
    Каналы                                   : 2 канала
    Расположение каналов                     : Front: L R
    Частота                                  : 48,0 КГц
    Метод сжатия                             : С потерями
    Размер потока                            : 28,4 Мбайт (3%)

    Аудио #5
    Идентификатор                            : 189 (0xBD)-132 (0x84)
    Формат                                   : AC-3
    Формат/Информация                        : Audio Coding 3
    Расширение режима                        : CM (complete main)
    Параметр Endianness формата              : Big
    Режим смешивания                         : DVD-Video
    Продолжительность                        : 20 м.
    Вид битрейта                             : Постоянный
    Битрейт                                  : 384 Кбит/сек
    Каналы                                   : 6 каналов
    Расположение каналов                     : Front: L C R, Side: L R, LFE
    Частота                                  : 48,0 КГц
    Метод сжатия                             : С потерями
    Размер потока                            : 56,8 Мбайт (6%)

    Текст
    Идентификатор                            : 189 (0xBD)-32 (0x20)
    Формат                                   : RLE
    Формат/Информация                        : Run-length encoding
    Режим смешивания                         : DVD-Video

    Меню

    Свернуть


    Скриншоты меню

    [screen]http://i85.fastpic.ru/big/2016/1207/0e/cd949cd60d77518f03d2059e9807870e.jpg[/screen][screen]http://i85.fastpic.ru/big/2016/1207/3b/036cac2ea55c53b7396117f79c2e433b.jpg[/screen][screen]http://i85.fastpic.ru/big/2016/1207/c5/2d1caf0fb39e404a334b8672768637c5.jpg[/screen]
    Свернуть


    Скриншоты

    [screen]http://i83.fastpic.ru/big/2016/1207/53/5259f9a0a451e3d7c654611394d4b553.jpg[/screen][screen]http://i83.fastpic.ru/big/2016/1207/1b/cfb40bd872729f5285f91710e9c6ef1b.jpg[/screen][screen]http://i83.fastpic.ru/big/2016/1207/a1/a166913969db0525c11babc838844ea1.jpg[/screen][screen]http://i83.fastpic.ru/big/2016/1207/91/289371092a602726a5a94ffb41efef91.jpg[/screen][screen]http://i83.fastpic.ru/big/2016/1207/79/f6984bba12561d059656c4e4d19a6779.jpg[/screen][screen]http://i83.fastpic.ru/big/2016/1207/f8/90558b30b51f00a58c88356b8b8832f8.jpg[/screen][screen]http://i83.fastpic.ru/big/2016/1207/51/29ffc1ba277ae770a600271395436251.jpg[/screen][screen]http://i83.fastpic.ru/big/2016/1207/36/4094b573535d36db24ded5744e092236.jpg[/screen][screen]http://i83.fastpic.ru/big/2016/1207/75/9d3b305254a6e25df031961733635475.jpg[/screen][screen]http://i83.fastpic.ru/big/2016/1207/7b/aa1f9fec34d6501338cb9d10dc16307b.jpg[/screen][screen]http://i83.fastpic.ru/big/2016/1207/82/4a55e2c74c3761418b2cea7bb4d78982.jpg[/screen][screen]http://i83.fastpic.ru/big/2016/1207/06/0df1599ebd75a5e7d7f2142360f80506.jpg[/screen]
    Свернуть
    Похожие раздачи Искать похожие
    Инструкция по скачиванию
     1  Качаем uTorrent версии 2.0 и выше
     2  После установки, жмем выше под постером на ссылку Скачать [MediaGet] или Скачать .torrent
     3  Открываем скачанный файл через соответствующий клиент: MediaGet или uTorrent
     4  Ждем пока подключатся участники
     5  Качаем
    Комментарии о  Вольный охотник / Bounty Tracker | DVD5 
    Ближайшее в кино
    Вверх