• Игры для PS4
  • Игры для PS3
  • Игры для XBOX360
  • Игры для PC
  • Игры для PS2
  • Игры для PSP
  • Для телефонов
  • Музыка
  • Книги / Журналы
  • Обои
  • Опрос
    Откуда Вы о нас узнали?
      0
    • От знакомых2,1,false,300,full
    • Из социальных сетей2,2,false,300,full
    • Из поисковых систем2,3,false,300,full
    • Другое2,4,false,300,full
    Статистика
    Всего онлайн -
    Гостей -
    Пользователей -
    Короли трекера
    
    Благодарности () Закрыть
    Быстрее загружает сайты Экономит интернет—трафик Меняет оформление страницы ВК Блокирует всю рекламу на сайтах Загружает торренты как µTorrent клиент Объеденяет все твои чаты из соц. сетей в один Проигрывает твою музыку не заходя во ВКонтакте
    Новый интернет-браузер
    Оrbitum
    Скачать
    и многое другое... Подробности на сайте производителя
    Информация о фильме
    Название: Борджиа
    Оригинальное название: Borgia
    Год выхода: 2011
    Жанр: Драма, криминал, история
    Режиссер: Оливер Хиршбигель, Метин Хусейн, Кристоф Шреве
    В ролях: Джон Доумен, Изольда Дюшаук, Арт Малик, Дяьрмуид Нойес, Марк Дэвисон, Марта Гастини, Ассумпта Серна, Стэнли Вебер, Андреа Завацки, Виктор Шефе

    Шокирующий путь восхождения к власти и доминированию одного из самых жестоких и развратных семейств 15 века. Папа Римский Иннокентий VIII на смертном одре. Вице-канцлер Римской церкви Родриго Борджиа шаг за шагом прокладывает путь к престолу. Он имел и многочисленное внебрачное потомство, и в бытность кардиналом в своём дворце сожительствовал со множеством женщин, нажил немало врагов. Но стать новым Папой ему никто не в силах помешать.

    Разработка французской версии "Borgia" началась на 11 месяцев раньше одноименной драмы от Showtime с Джереми Айронсом и стоила 30 млн. долларов. Съёмки проходили в Чехии. Насилие, обнаженка и крепкое словцо, присущие контенту Canal+, есть и в "Borgia".



    Страна: Германия, Франция
    Студия: Canal+
    Продолжительность: ~ 53 мин
    Перевод: Профессиональный многоголосый закадровый (Домашний)

    Файл
    Кодек: H264
    Качество: BDRip 1080p.
    Видео: 1920x1080 at 23.976 fps, MPEG-4 AVC, ~8100 kbps avg.
    Звук: русская, 48 kHz/16-bit, AC3 5.1, 448.00 kbps avg.
    английская, 48 kHz/16-bit, AC3 5.1, 448.00 kbps avg.
    Субтитры: отсутствуют

    Список серий
    1: 1492 год / 1492

    2: Лихорадка / Ondata di calore

    3: Святая клятва / A Sacred Vow

    4: Мудрость Святого Духа / Wisdom of the Holy Spirit

    5: Брачные узы / The Bonds of Matrimony

    6: Законнорожденность / Legitimacy

    7: Маневры / Maneuvers

    8: Прелюдия к Апокалипсису / Prelude to an Apocalypse

    9: Вторжение в Рим / The Invasion of Rome

    10: Чудеса / Miracles

    11: Чудовище от Бога / God"s Monster

    12: Змей поднимается / Serpent rises
    Свернуть




    MediaInfo
    General
    Unique ID                      : 145929853433133691403641754508181812016 (0x6DC9114472D113521A3E3595EE7AB330)
    Complete name                  : D:Т-файлыБорджиа6. Законнорожденность.mkv
    Format                         : Matroska
    Format version                 : Version 4 / Version 2
    File size                      : 3.59 GiB
    Duration                       : 57 min 12 s
    Overall bit rate               : 8 975 kb/s
    Writing application            : XviD4PSP 7.0.452 DAILY
    Writing library                : Lavf57.71.100
    ErrorDetectionType             : Per level 1
    ENCODING_INFO                  : MPEGTS > MKV / H264 > X264 VBR-2P 8075kbps XHQ / DTS-HD MA > AC3 CBR 448kbps / DTS-HD MA > AC3 CBR 448kbps

    Video
    ID                             : 1
    Format                         : AVC
    Format/Info                    : Advanced Video Codec
    Format profile                 : High@L4.1
    Format settings, CABAC         : Yes
    Format settings, RefFrames     : 4 frames
    Codec ID                       : V_MPEG4/ISO/AVC
    Duration                       : 57 min 12 s
    Bit rate                       : 8 075 kb/s
    Width                          : 1 920 pixels
    Height                         : 1 080 pixels
    Display aspect ratio           : 16:9
    Frame rate mode                : Constant
    Frame rate                     : 23.976 (24000/1001) FPS
    Color space                    : YUV
    Chroma subsampling             : 4:2:0
    Bit depth                      : 8 bits
    Scan type                      : Progressive
    Bits/(Pixel*Frame)             : 0.162
    Stream size                    : 3.16 GiB (88%)
    Writing library                : x264 core 155 r2901M 7d0ff22
    Encoding settings              : cabac=1 / ref=4 / deblock=1:-3:-3 / analyse=0x3:0x133 / me=tesa / subme=11 / psy=1 / psy_rd=1.05:0.10 / mixed_ref=1 / me_range=48 / chroma_me=1 / trellis=2 / 8x8dct=1 / cqm=0 / deadzone=21,11 / fast_pskip=0 / chroma_qp_offset=-3 / threads=7 / lookahead_threads=1 / sliced_threads=0 / nr=0 / decimate=1 / interlaced=0 / bluray_compat=0 / constrained_intra=0 / bframes=8 / b_pyramid=2 / b_adapt=2 / b_bias=0 / direct=3 / weightb=1 / open_gop=0 / weightp=2 / keyint=240 / keyint_min=24 / scenecut=40 / intra_refresh=0 / rc=2pass / mbtree=0 / bitrate=8075 / ratetol=1.0 / qcomp=0.70 / qpmin=3 / qpmax=69 / qpstep=4 / cplxblur=20.0 / qblur=0.5 / ip_ratio=1.40 / pb_ratio=1.30 / aq=2:1.00
    Default                        : Yes
    Forced                         : No
    Color range                    : Limited
    Color primaries                : BT.709
    Transfer characteristics       : BT.709
    Matrix coefficients            : BT.709

    Audio #1
    ID                             : 2
    Format                         : AC-3
    Format/Info                    : Audio Coding 3
    Format settings, Endianness    : Big
    Codec ID                       : A_AC3
    Duration                       : 57 min 12 s
    Bit rate mode                  : Constant
    Bit rate                       : 448 kb/s
    Channel(s)                     : 6 channels
    Channel positions              : Front: L C R, Side: L R, LFE
    Sampling rate                  : 48.0 kHz
    Frame rate                     : 31.250 FPS (1536 SPF)
    Bit depth                      : 16 bits
    Compression mode               : Lossy
    Stream size                    : 183 MiB (5%)
    Language                       : Russian
    Service kind                   : Complete Main
    Default                        : Yes
    Forced                         : No

    Audio #2
    ID                             : 3
    Format                         : AC-3
    Format/Info                    : Audio Coding 3
    Format settings, Endianness    : Big
    Codec ID                       : A_AC3
    Duration                       : 57 min 12 s
    Bit rate mode                  : Constant
    Bit rate                       : 448 kb/s
    Channel(s)                     : 6 channels
    Channel positions              : Front: L C R, Side: L R, LFE
    Sampling rate                  : 48.0 kHz
    Frame rate                     : 31.250 FPS (1536 SPF)
    Bit depth                      : 16 bits
    Compression mode               : Lossy
    Stream size                    : 183 MiB (5%)
    Language                       : English
    Service kind                   : Complete Main
    Default                        : No
    Forced                         : No
    Свернуть
    Похожие раздачи Искать похожие
    Инструкция по скачиванию
     1  Качаем uTorrent версии 2.0 и выше
     2  После установки, жмем выше под постером на ссылку Скачать [MediaGet] или Скачать .torrent
     3  Открываем скачанный файл через соответствующий клиент: MediaGet или uTorrent
     4  Ждем пока подключатся участники
     5  Качаем
    Комментарии о  Борджиа (ФГ) / Borgia [Сезон 01] | BDRip 1080p 
    Ближайшее в кино
    Вверх