• Игры для PS4
  • Игры для PS3
  • Игры для XBOX360
  • Игры для PC
  • Игры для PS2
  • Игры для PSP
  • Для телефонов
  • Музыка
  • Книги / Журналы
  • Обои
  • Опрос
    Удобен ли сайт в использовании?
      0
    • Очень удобен, все понятно1,1,false,300,full
    • Удобен1,2,false,300,full
    • Средне1,3,false,300,full
    • Неудобен, трудно ориентироваться1,4,false,300,full
    • Совсем неудобен1,5,false,300,full
    Статистика
    Всего онлайн -
    Гостей -
    Пользователей -
    Короли трекера
    
    Благодарности () Закрыть
    Быстрее загружает сайты Экономит интернет—трафик Меняет оформление страницы ВК Блокирует всю рекламу на сайтах Загружает торренты как µTorrent клиент Объеденяет все твои чаты из соц. сетей в один Проигрывает твою музыку не заходя во ВКонтакте
    Новый интернет-браузер
    Оrbitum
    Скачать
    и многое другое... Подробности на сайте производителя
    Информация о фильме
    Название: На маленьком плоту
    Оригинальное название: Fen bei ren sheng / Shuttle Life
    Год выхода: 2017
    Жанр: драма
    Режиссер: Тань Сэн-Кят
    В ролях: Джек Тань, Сильвия Чан, Энджел Чань, Мей Ян Ган, Джастин Лань, Джек Яп и др.

    Описание: История про безработного парня, которому приходится воровать и продавать краденое, чтобы прокормить сошедшую с ума мать и пятилетнюю сестру.



    Страна: Малайзия
    Продолжительность: 01:31:02
    Перевод: Авторский (одноголосый закадровый) Андрей Дольский
    Субтитры: английские
    Оригинальная аудиодорожка: китайский

    Файл
    Качество: BDRemux 1080p
    Видео: MPEG-4 AVC / 1920x1080 / 16:9 / 23.976 fps / 28867 kbps
    Аудио 1: Rus / DTS-HD MA / 48.0 KHz / 5.1 / 3290 kbps / 24 bit (DTS Core 48.0 KHz / 5.1 / 1509 kbps / 24 bit) / Андрей Дольский
    Аудио 2: Zho / DTS-HD MA / 48.0 KHz / 5.1 / 3256 kbps / 24 bit (DTS Core 48.0 KHz / 5.1 / 1509 kbps / 24 bit)

    Скриншоты
    [screen]https://img11.lostpic.net/2018/07/07/33ca499cde43873d3c53c170e55a70fe.png[/screen][screen]https://img11.lostpic.net/2018/07/07/f358ae2bb1cdeb04171329e24a944ef6.png[/screen][screen]https://img11.lostpic.net/2018/07/07/fc61fdc35ea1469abc2f7c09f4b9b12a.png[/screen][screen]https://img11.lostpic.net/2018/07/07/1e31f5b012cb255e84fd421305f15d2b.png[/screen]Свернуть


    MediaInfo
    Общее
    Уникальный идентификатор : 92720346583357329680711208696589733294 (0x45C14A089C468AEC0B32EF9AB3A64DAE)
    Полное имя : E:porvaliparus.2018Shuttle.Life.2017.BDRemux.1080p.mkv
    Формат : Matroska
    Версия формата : Version 4 / Version 2
    Размер файла : 22,5 Гбайт
    Продолжительность : 1 ч. 31 м.
    Режим общего битрейта : Переменный
    Общий поток : 35,4 Мбит/сек
    Название фильма : Shuttle.Life.2017.BDRemux.1080p-porvaliparus
    Дата кодирования : UTC 2018-06-04 13:41:48
    Программа кодирования : mkvmerge v23.0.0 ("The Bride Said No") 64-bit
    Библиотека кодирования : libebml v1.3.6 + libmatroska v1.4.9

    Видео
    Идентификатор : 1
    Формат : AVC
    Формат/Информация : Advanced Video Codec
    Профиль формата : High@L4.1
    Настройки формата : CABAC / 4 Ref Frames
    Параметр CABAC формата : Да
    Параметр RefFrames формата : 4 кадра
    Идентификатор кодека : V_MPEG4/ISO/AVC
    Продолжительность : 1 ч. 31 м.
    Вид битрейта : Переменный
    Битрейт : 28,9 Мбит/сек
    Максимальный битрейт : 38,0 Мбит/сек
    Ширина : 1920 пикселей
    Высота : 1080 пикселей
    Соотношение сторон : 16:9
    Режим частоты кадров : Постоянный
    Частота кадров : 23,976 (24000/1001) кадра/сек
    Цветовое пространство : YUV
    Субдискретизация насыщенности : 4:2:0
    Битовая глубина : 8 бит
    Тип развёртки : Прогрессивная
    Бит/(Пиксели*Кадры) : 0.581
    Размер потока : 18,4 Гбайт (82%)
    Заголовок : Shuttle.Life.2017.BDRemux.1080p
    Default : Да
    Forced : Нет

    Аудио #1
    Идентификатор : 2
    Формат : DTS
    Формат/Информация : Digital Theater Systems
    Профиль формата : MA / Core
    Идентификатор кодека : A_DTS
    Продолжительность : 1 ч. 31 м.
    Вид битрейта : Переменный / Постоянный
    Битрейт : 3290 Кбит/сек / 1509 Кбит/сек
    Каналы : 6 каналов
    Расположение каналов : Front: L C R, Side: L R, LFE
    Частота : 48,0 КГц
    Частота кадров : 93,750 кадра/сек (512 SPF)
    Битовая глубина : 24 бит
    Метод сжатия : Без потерь / Lossy
    Размер потока : 2,09 Гбайт (9%)
    Заголовок : AVO [А. Дольский]
    Язык : Russian
    Default : Да
    Forced : Нет

    Аудио #2
    Идентификатор : 3
    Формат : DTS
    Формат/Информация : Digital Theater Systems
    Профиль формата : MA / Core
    Идентификатор кодека : A_DTS
    Продолжительность : 1 ч. 31 м.
    Вид битрейта : Переменный / Постоянный
    Битрейт : 3256 Кбит/сек / 1509 Кбит/сек
    Каналы : 6 каналов
    Расположение каналов : Front: L C R, Side: L R, LFE
    Частота : 48,0 КГц
    Частота кадров : 93,750 кадра/сек (512 SPF)
    Битовая глубина : 24 бит
    Метод сжатия : Без потерь / Lossy
    Размер потока : 2,07 Гбайт (9%)
    Язык : Chinese
    Default : Нет
    Forced : Нет

    Текст
    Идентификатор : 4
    Формат : UTF-8
    Идентификатор кодека : S_TEXT/UTF8
    Идентификатор кодека/Информация : UTF-8 Plain Text
    Продолжительность : 1 ч. 25 м.
    Битрейт : 39 бит/сек
    ElementCount : 904
    Размер потока : 24,7 Кбайт (0%)
    Язык : English
    Default : Нет
    Forced : Нет

    Меню
    00:00:00.000 : en:00:00:00.000
    00:07:12.766 : en:00:07:12.766
    00:16:34.285 : en:00:16:34.285
    00:26:42.684 : en:00:26:42.684
    00:37:07.016 : en:00:37:07.016
    00:48:36.455 : en:00:48:36.455
    01:00:48.311 : en:01:00:48.311
    01:12:59.458 : en:01:12:59.458Свернуть
    Похожие раздачи Искать похожие
    Инструкция по скачиванию
     1  Качаем uTorrent версии 2.0 и выше
     2  После установки, жмем выше под постером на ссылку Скачать [MediaGet] или Скачать .torrent
     3  Открываем скачанный файл через соответствующий клиент: MediaGet или uTorrent
     4  Ждем пока подключатся участники
     5  Качаем
    Комментарии о  На маленьком плоту / Fen bei ren sheng / Shuttle Life | BDRemux 1080p 
    Ближайшее в кино
    Вверх