• Игры для PS4
  • Игры для PS3
  • Игры для XBOX360
  • Игры для PC
  • Игры для PS2
  • Игры для PSP
  • Для телефонов
  • Музыка
  • Книги / Журналы
  • Обои
  • Опрос
    Откуда Вы о нас узнали?
      0
    • От знакомых2,1,false,300,full
    • Из социальных сетей2,2,false,300,full
    • Из поисковых систем2,3,false,300,full
    • Другое2,4,false,300,full
    Статистика
    Всего онлайн -
    Гостей -
    Пользователей -
    Короли трекера
    
    Благодарности () Закрыть
    Быстрее загружает сайты Экономит интернет—трафик Меняет оформление страницы ВК Блокирует всю рекламу на сайтах Загружает торренты как µTorrent клиент Объеденяет все твои чаты из соц. сетей в один Проигрывает твою музыку не заходя во ВКонтакте
    Новый интернет-браузер
    Оrbitum
    Скачать
    и многое другое... Подробности на сайте производителя
    Информация о фильме
    Название: Флот МакХэйла / Убрать Перископ 2
    Оригинальное название: McHale"s Navy
    Год выхода: 1997
    Жанр: Боевик, комедия
    Режиссер: Брайан Спайсер
    В ролях: Том Арнольд, Тим Карри, Дин Стокуэлл, Дебра Мессинг, Дэвид Алан Грир, Эрнест Боргнайн, Брюс Кэмпбелл, Френч Стюарт, Дэнтон Стоун, Брайан Хейли

    О фильме:
    Квинтон МакХэйл, непробиваемо спокойный отставной капитан флота. Ленивое времяпрепровождение заканчивается, когда старый знакомый МакХэйла начинает угрожать его любимой базе на острове. Капитан снова надевает свой боевой мундир и возглавляет команду неудачников, принимая участие в головокружительных маневрах на страх врагам.



    Страна: США
    Студия: Sheinberg Productions, The Bubble Factory
    Продолжительность: 01:48:48
    Перевод: Профессиональный двухголосый, Авторский

    Файл
    Кодек: H.264
    Качество: WEB-DL 1080p
    Видео: MPEG-4 AVC, High@L4.0, 8 bits, 10.0 Mбит/с, 1920x1040, 23.976 кадр/с
    Звук:
    Русский (AC3, 2 ch, 192 Кбит/с) / Профессиональный двухголосый (Премьер Видео Фильм) VHSRip
    Русский (AC3, 2 ch, 192 Кбит/с) / Авторский (Юрий Живов)
    Русский (AC3, 2 ch, 192 Кбит/с) / Авторский (Павел Санаев)
    Английский (E-AC3, 6 ch, 640 Кбит/с)
    Субтитры: Английские (Full, SDH)

    Семпл

    MI
    General
    Unique ID                                : 98619471540472331316122846039024081681 (0x4A316B597827C8678F8DBA4FC6681B11)
    Complete name                            : C:UsersPublicVideosSample VideosFilmyMcHales.Navy.1997.1080p.AMZN.WEB-DL.MediaClub.mkv
    Format                                   : Matroska
    Format version                           : Version 4 / Version 2
    File size                                : 8.56 GiB
    Duration                                 : 1 h 48 min
    Overall bit rate mode                    : Variable
    Overall bit rate                         : 11.3 Mb/s
    Encoded date                             : UTC 2018-07-06 11:28:02
    Writing application                      : mkvmerge v19.0.0 ("Brave Captain") 64-bit
    Writing library                          : libebml v1.3.5 + libmatroska v1.4.8
    Cover                                    : Yes
    Attachments                              : cover.jpg

    Video
    ID                                       : 1
    Format                                   : AVC
    Format/Info                              : Advanced Video Codec
    Format profile                           : High@L4
    Format settings                          : CABAC / 4 Ref Frames
    Format settings, CABAC                   : Yes
    Format settings, RefFrames               : 4 frames
    Codec ID                                 : V_MPEG4/ISO/AVC
    Duration                                 : 1 h 48 min
    Bit rate mode                            : Variable
    Bit rate                                 : 10.0 Mb/s
    Maximum bit rate                         : 15.0 Mb/s
    Width                                    : 1 920 pixels
    Height                                   : 1 040 pixels
    Display aspect ratio                     : 1.85:1
    Frame rate mode                          : Constant
    Frame rate                               : 23.976 (24000/1001) FPS
    Color space                              : YUV
    Chroma subsampling                       : 4:2:0
    Bit depth                                : 8 bits
    Scan type                                : Progressive
    Bits/(Pixel*Frame)                       : 0.210
    Stream size                              : 7.63 GiB (89%)
    Title                                    : WEB-DL.1080p.AMZN by Silverok
    Default                                  : Yes
    Forced                                   : No
    Color range                              : Limited
    Color primaries                          : BT.709
    Transfer characteristics                 : BT.709
    Matrix coefficients                      : BT.709

    Audio #1
    ID                                       : 2
    Format                                   : AC-3
    Format/Info                              : Audio Coding 3
    Codec ID                                 : A_AC3
    Duration                                 : 1 h 48 min
    Bit rate mode                            : Constant
    Bit rate                                 : 192 kb/s
    Channel(s)                               : 2 channels
    Channel positions                        : Front: L R
    Sampling rate                            : 48.0 kHz
    Frame rate                               : 31.250 FPS (1536 SPF)
    Bit depth                                : 16 bits
    Compression mode                         : Lossy
    Stream size                              : 149 MiB (2%)
    Title                                    : Профессиональный двухголосый (Премьер Видео Фильм) VHSRip
    Language                                 : Russian
    Service kind                             : Complete Main
    Default                                  : Yes
    Forced                                   : No

    Audio #2
    ID                                       : 3
    Format                                   : AC-3
    Format/Info                              : Audio Coding 3
    Codec ID                                 : A_AC3
    Duration                                 : 1 h 48 min
    Bit rate mode                            : Constant
    Bit rate                                 : 192 kb/s
    Channel(s)                               : 2 channels
    Channel positions                        : Front: L R
    Sampling rate                            : 48.0 kHz
    Frame rate                               : 31.250 FPS (1536 SPF)
    Bit depth                                : 16 bits
    Compression mode                         : Lossy
    Stream size                              : 149 MiB (2%)
    Title                                    : Авторский (Юрий Живов)
    Language                                 : Russian
    Service kind                             : Complete Main
    Default                                  : No
    Forced                                   : No

    Audio #3
    ID                                       : 4
    Format                                   : AC-3
    Format/Info                              : Audio Coding 3
    Codec ID                                 : A_AC3
    Duration                                 : 1 h 48 min
    Bit rate mode                            : Constant
    Bit rate                                 : 192 kb/s
    Channel(s)                               : 2 channels
    Channel positions                        : Front: L R
    Sampling rate                            : 48.0 kHz
    Frame rate                               : 31.250 FPS (1536 SPF)
    Bit depth                                : 16 bits
    Compression mode                         : Lossy
    Stream size                              : 149 MiB (2%)
    Title                                    : Авторский (Павел Санаев)
    Language                                 : Russian
    Service kind                             : Complete Main
    Default                                  : No
    Forced                                   : No

    Audio #4
    ID                                       : 5
    Format                                   : E-AC-3
    Format/Info                              : Enhanced Audio Coding 3
    Codec ID                                 : A_EAC3
    Duration                                 : 1 h 48 min
    Bit rate mode                            : Constant
    Bit rate                                 : 640 kb/s
    Channel(s)                               : 6 channels
    Channel positions                        : Front: L C R, Side: L R, LFE
    Sampling rate                            : 48.0 kHz
    Frame rate                               : 187.500 FPS (256 SPF)
    Compression mode                         : Lossy
    Stream size                              : 498 MiB (6%)
    Language                                 : English
    Service kind                             : Complete Main
    Default                                  : No
    Forced                                   : No

    Text #1
    ID                                       : 6
    Format                                   : UTF-8
    Codec ID                                 : S_TEXT/UTF8
    Codec ID/Info                            : UTF-8 Plain Text
    Duration                                 : 1 h 42 min
    Bit rate                                 : 67 b/s
    Count of elements                        : 1479
    Stream size                              : 51.0 KiB (0%)
    Title                                    : Full
    Language                                 : English
    Default                                  : Yes
    Forced                                   : No

    Text #2
    ID                                       : 7
    Format                                   : UTF-8
    Codec ID                                 : S_TEXT/UTF8
    Codec ID/Info                            : UTF-8 Plain Text
    Duration                                 : 1 h 42 min
    Bit rate                                 : 73 b/s
    Count of elements                        : 1586
    Stream size                              : 54.9 KiB (0%)
    Title                                    : SDH
    Language                                 : English
    Default                                  : No
    Forced                                   : NoСвернуть


    Скриншоты
    [screen]https://img11.lostpic.net/2018/07/07/f1961c081fb5f04ffbf52435b5592197.jpg[/screen][screen]https://img11.lostpic.net/2018/07/07/a8851214a532e809850e02c1b6af9716.jpg[/screen][screen]https://img11.lostpic.net/2018/07/07/ffdcfaa008a503df2dda0b84b9197d0b.jpg[/screen][screen]https://img11.lostpic.net/2018/07/07/1dbb1159d8507c61ecfb82541c803404.jpg[/screen][screen]https://img11.lostpic.net/2018/07/07/083cc8258930cacb9ff50e0ecedec816.jpg[/screen][screen]https://img11.lostpic.net/2018/07/07/09432d41ec8b1a8429050b4eca93e204.jpg[/screen][screen]https://img11.lostpic.net/2018/07/07/800712fefb6140e750cdb00c55bc694f.jpg[/screen][screen]https://img11.lostpic.net/2018/07/07/ede80e2d7fc0a7b8d06412bba7b56220.jpg[/screen]Свернуть
    Похожие раздачи Искать похожие
    Инструкция по скачиванию
     1  Качаем uTorrent версии 2.0 и выше
     2  После установки, жмем выше под постером на ссылку Скачать [MediaGet] или Скачать .torrent
     3  Открываем скачанный файл через соответствующий клиент: MediaGet или uTorrent
     4  Ждем пока подключатся участники
     5  Качаем
    Комментарии о  Флот МакХэйла / Убрать Перископ 2 / McHale's Navy | WEB-DL 1080p 
    Ближайшее в кино
    Вверх