• Игры для PS4
  • Игры для PS3
  • Игры для XBOX360
  • Игры для PC
  • Игры для PS2
  • Игры для PSP
  • Для телефонов
  • Музыка
  • Книги / Журналы
  • Обои
  • Опрос
    Удобен ли сайт в использовании?
      0
    • Очень удобен, все понятно1,1,false,300,full
    • Удобен1,2,false,300,full
    • Средне1,3,false,300,full
    • Неудобен, трудно ориентироваться1,4,false,300,full
    • Совсем неудобен1,5,false,300,full
    Статистика
    Всего онлайн -
    Гостей -
    Пользователей -
    Короли трекера
    
    Благодарности () Закрыть
    Быстрее загружает сайты Экономит интернет—трафик Меняет оформление страницы ВК Блокирует всю рекламу на сайтах Загружает торренты как µTorrent клиент Объеденяет все твои чаты из соц. сетей в один Проигрывает твою музыку не заходя во ВКонтакте
    Новый интернет-браузер
    Orbitum
    Скачать
    и многое другое... Подробности на сайте производителя
    Информация о фильме
    Название: То, что называют любовью
    Оригинальное название: The Thing Called Love
    Год выхода: 1993
    Жанр: Драма, мелодрама, музыка
    Режиссер: Питер Богданович
    В ролях: Ривер Феникс, Саманта Мэтис, Дермот Малруни, Сандра Баллок, Кей Ти Ослин, Энтони Кларк, Уэбб Уайлдер, Эрл Пул Болл, Дебора Аллен, Джимми Дэйл Гилмор, Триша Йервуд

    О фильме:
    Четверо молодых исполнителей песен в стиле кантри приезжают в Нэшвилл в надежде сделать карьеру в шоу-бизнесе. Они ищут славы и любви. "Великолепная четвёрка" состоит из Миранды, Кайла, Линды и Джеймса, наиболее талантливого из всей компании. Впервые они встречаются в кафе под названием "Блюбелл". С выступлений в этом заведении начинали многие звёзды кантри-музыки. Владелица "Блюбелла" не боится предоставлять сцену в распоряжение новичков, поэтому каждый из 4-х получает шанс выступить перед публикой. Когда Джеймс и Кайл влюбляются в Миранду, карьера для них отодвигается на второй план. Миранде необходимо решить, кто и что для неё важнее…

    [img]http://imdb.snick.ru/ratefor/02/tt0108327.png[/img][img]https://rating.kinopoisk.ru/6134.gif[/img]

    Страна: США
    Студия: Davis Entertainment, Paramount Pictures
    Продолжительность: 01:54:22
    Перевод: Профессиональный многоголосый, профессиональный двухголосый

    Файл
    Кодек: x264
    Качество: WEB-DL 720p
    Видео: MPEG-4 AVC, 3005 Kбит/с, 1280x720
    Звук #1: AC3, 2 ch, 192 Кбит/с | Профессиональный многоголосый (5 Канал)
    Звук #2: AC3, 2 ch, 192 Кбит/с | Профессиональный многоголосый (т/к Домашний)
    Звук #3: AC3, 2 ch, 192 Кбит/с | Профессиональный двухголосый
    Звук #4: AC3, 2 ch, 192 Кбит/с | Eng
    Субтитры: Русские, английские



    Инфо-файл
    Формат                                   : Matroska
    Версия формата                           : Version 2
    Размер файла                             : 3,08 Гбайт
    Продолжительность                        : 1 ч. 54 м.
    Общий поток                              : 3850 Кбит/сек
    Название фильма                          : The.Thing.Called.Love.1993.WEB-DL.720p
    Дата кодирования                         : UTC 2018-07-07 13:19:27
    Программа кодирования                    : mkvmerge v5.8.0 ("No Sleep / Pillow") built on Sep  2 2012 15:37:04
    Библиотека кодирования                   : libebml v1.2.3 + libmatroska v1.3.0
    Attachements                             : cover.jpg

    Видео
    Идентификатор                            : 1
    Формат                                   : AVC
    Формат/Информация                        : Advanced Video Codec
    Профиль формата                          : High@L3.1
    Параметр CABAC формата                   : Да
    Параметр ReFrames формата                : 5 кадров
    Идентификатор кодека                     : V_MPEG4/ISO/AVC
    Продолжительность                        : 1 ч. 54 м.
    Битрейт                                  : 3005 Кбит/сек
    Ширина                                   : 1280 пикселей
    Высота                                   : 720 пикселей
    Соотношение сторон                       : 16:9
    Режим частоты кадров                     : Постоянный
    Частота кадров                           : 23,976 кадра/сек
    Цветовое пространство                    : YUV
    Субдискретизация насыщенности            : 4:2:0
    Битовая глубина                          : 8 бит
    Тип развёртки                            : Прогрессивная
    Бит/(Пиксели*Кадры)                      : 0.136
    Размер потока                            : 2,40 Гбайт (78%)
    Заголовок                                : The.Thing.Called.Love.1993.WEB-DL.720p
    Язык                                     : English
    Default                                  : Да
    Forced                                   : Нет

    Аудио #1
    Идентификатор                            : 2
    Формат                                   : AC-3
    Формат/Информация                        : Audio Coding 3
    Расширение режима                        : CM (complete main)
    Параметр Endianness формата              : Big
    Идентификатор кодека                     : A_AC3
    Продолжительность                        : 1 ч. 54 м.
    Вид битрейта                             : Постоянный
    Битрейт                                  : 192 Кбит/сек
    Каналы                                   : 2 канала
    Расположение каналов                     : Front: L R
    Частота                                  : 48,0 КГц
    Метод сжатия                             : С потерями
    Размер потока                            : 157 Мбайт (5%)
    Заголовок                                : MVO (5 Канал)
    Язык                                     : Russian
    Default                                  : Да
    Forced                                   : Нет

    Аудио #2
    Идентификатор                            : 3
    Формат                                   : AC-3
    Формат/Информация                        : Audio Coding 3
    Расширение режима                        : CM (complete main)
    Параметр Endianness формата              : Big
    Идентификатор кодека                     : A_AC3
    Продолжительность                        : 1 ч. 54 м.
    Вид битрейта                             : Постоянный
    Битрейт                                  : 192 Кбит/сек
    Каналы                                   : 2 канала
    Расположение каналов                     : Front: L R
    Частота                                  : 48,0 КГц
    Метод сжатия                             : С потерями
    Размер потока                            : 157 Мбайт (5%)
    Заголовок                                : MVO (т/к "Домашний")
    Язык                                     : Russian
    Default                                  : Нет
    Forced                                   : Нет

    Аудио #3
    Идентификатор                            : 4
    Формат                                   : AC-3
    Формат/Информация                        : Audio Coding 3
    Расширение режима                        : CM (complete main)
    Параметр Endianness формата              : Big
    Идентификатор кодека                     : A_AC3
    Продолжительность                        : 1 ч. 54 м.
    Вид битрейта                             : Постоянный
    Битрейт                                  : 192 Кбит/сек
    Каналы                                   : 2 канала
    Расположение каналов                     : Front: L R
    Частота                                  : 48,0 КГц
    Метод сжатия                             : С потерями
    Размер потока                            : 157 Мбайт (5%)
    Заголовок                                : DVO
    Язык                                     : Russian
    Default                                  : Нет
    Forced                                   : Нет

    Аудио #4
    Идентификатор                            : 5
    Формат                                   : AC-3
    Формат/Информация                        : Audio Coding 3
    Профиль формата                          : Dolby Digital
    Расширение режима                        : CM (complete main)
    Параметр Endianness формата              : Big
    Идентификатор кодека                     : A_AC3
    Продолжительность                        : 1 ч. 54 м.
    Вид битрейта                             : Постоянный
    Битрейт                                  : 192 Кбит/сек
    Каналы                                   : 2 канала
    Расположение каналов                     : Front: L R
    Частота                                  : 48,0 КГц
    Метод сжатия                             : С потерями
    Размер потока                            : 157 Мбайт (5%)
    Язык                                     : English
    Default                                  : Нет
    Forced                                   : Нет

    Текст #1
    Идентификатор                            : 6
    Формат                                   : UTF-8
    Идентификатор кодека                     : S_TEXT/UTF8
    Идентификатор кодека/Информация          : UTF-8 Plain Text
    Язык                                     : Russian
    Default                                  : Нет
    Forced                                   : Нет

    Текст #2
    Идентификатор                            : 7
    Формат                                   : UTF-8
    Идентификатор кодека                     : S_TEXT/UTF8
    Идентификатор кодека/Информация          : UTF-8 Plain Text
    Язык                                     : English
    Default                                  : Нет
    Forced                                   : НетСвернуть
    Похожие раздачи Искать похожие
    Инструкция по скачиванию
     1  Качаем uTorrent версии 2.0 и выше
     2  После установки, жмем выше под постером на ссылку Скачать [MediaGet] или Скачать .torrent
     3  Открываем скачанный файл через соответствующий клиент: MediaGet или uTorrent
     4  Ждем пока подключатся участники
     5  Качаем
    Комментарии о  То, что называют любовью / The Thing Called Love | WEB-DL 720p 
    Ближайшее в кино
    Вверх