• Игры для PS4
  • Игры для PS3
  • Игры для XBOX360
  • Игры для PC
  • Игры для PS2
  • Игры для PSP
  • Для телефонов
  • Музыка
  • Книги / Журналы
  • Обои
  • Опрос
    Откуда Вы о нас узнали?
      0
    • От знакомых2,1,false,300,full
    • Из социальных сетей2,2,false,300,full
    • Из поисковых систем2,3,false,300,full
    • Другое2,4,false,300,full
    Статистика
    Всего онлайн -
    Гостей -
    Пользователей -
    Короли трекера
    
    Благодарности () Закрыть
    Быстрее загружает сайты Экономит интернет—трафик Меняет оформление страницы ВК Блокирует всю рекламу на сайтах Загружает торренты как µTorrent клиент Объеденяет все твои чаты из соц. сетей в один Проигрывает твою музыку не заходя во ВКонтакте
    Новый интернет-браузер
    Оrbitum
    Скачать
    и многое другое... Подробности на сайте производителя
    Информация о фильме
    Название: Долгий поцелуй на ночь
    Оригинальное название: The Long Kiss Goodnight
    Год выхода: 1996
    Жанр: боевик, триллер, драма, криминал, детектив
    Режиссер: Ренни Харлин
    В ролях: Джина Дэвис, Сэмюэл Л. Джексон, Ивонн Зима, Крэйг Бирко, Брайан Кокс, Том Амандес, Патрик Мэлахайд, Дэвид Морс, Джозеф МакКенна, Мелина Канакаридис

    О фильме:
    8 лет назад школьная учительница Саманта Кейн перенесла полную потерю памяти. Она живет с 8-летней дочкой счастливой семейной жизнью и не подозревает о своем кровавом прошлом, ведь когда-то эта красивая женщина была агентом Чарли Бэлтимор, выполнявшим секретные заказы ЦРУ.
    Шокированная неожиданным возвращением некоторых навыков и психологической подготовки профессионального киллера, Саманта пытается разобраться в своем прошлом. Детектив Митч Хенесси, начавший с расследования жизни простой учительницы, оказывается втянутым вместе с Самантой в секретную операцию ЦРУ.



    Страна: США
    Студия: Forge, New Line Cinema, Steve Tisch Company
    Продолжительность: 02:00:33
    Перевод: Профессиональный многоголосый, профессиональный двухголосый, авторский одноголосый

    Файл
    Кодек: HEVC x265 10bit
    Качество: BDRip-HEVC 1080p
    Видео: 1920x800 (2.40:1), 5985 Кбит/сек, 0.163 бит/(Пиксели*Кадры), 23.976 кадр/сек, (Main10@L.4.1@High), 10 бит
    Звук:
    Аудио1: Русская, AC3 640 Кбит/сек, 6 канала(ов),16bit 48,0 КГц MVO Киномания
    Аудио2: Русская, AC3 448 Кбит/сек, 6 канала(ов),16bit 48,0 КГц DVO Союз-Видео
    Аудио3: Русская, AC3 384 Кбит/сек, 6 канала(ов),16bit 48,0 КГц AVO Гаврилов
    Аудио4: Русская, AC3 384 Кбит/сек, 6 канала(ов),16bit 48,0 КГц AVO Живов
    Аудио6: English, AC3 384 Кбит/сек, 6 канала(ов),16bit 48,0 КГц
    Субтитры: Русские, English
    Навигация по главам: Есть

    Mediainfo
    General
    Unique ID                   : 218320440069814296131480063239386602922 (0xA43EFCBFB5238EBB89AA486F8C889DAA)
    Complete name               : F:HEVCThe Long Kiss Goodnight (1996) BDRip 1080p [HEVC] 10Bit_Cthulhu.mkv
    Format                      : Matroska
    Format version              : Version 4 / Version 2
    File size                   : 6.93 GiB
    Duration                    : 2 h 0 min
    Overall bit rate            : 8 228 kb/s
    Movie name                  : The Long Kiss Goodnight (1996)_rip_by_Cthulhu
    Encoded date                : UTC 2018-07-07 21:06:06
    Writing application         : mkvmerge v24.0.0 ("Beyond The Pale") 64-bit
    Writing library             : libebml v1.3.6 + libmatroska v1.4.9
    Cover                       : Yes
    Attachments                 : cover.jpg / cover.jpg

    Video
    ID                          : 1
    Format                      : HEVC
    Format/Info                 : High Efficiency Video Coding
    Format profile              : Main 10@L4.1@High
    Codec ID                    : V_MPEGH/ISO/HEVC
    Duration                    : 2 h 0 min
    Bit rate                    : 5 985 kb/s
    Width                       : 1 920 pixels
    Height                      : 800 pixels
    Display aspect ratio        : 2.40:1
    Frame rate mode             : Constant
    Frame rate                  : 23.976 (24000/1001) FPS
    Color space                 : YUV
    Chroma subsampling          : 4:2:0
    Bit depth                   : 10 bits
    Bits/(Pixel*Frame)          : 0.163
    Stream size                 : 5.04 GiB (73%)
    Writing library             : x265 2.7+340-aa9102400f24:[Windows][GCC 8.0.1][64 bit] 10bit
    Encoding settings           : cpuid=1049583 / frame-threads=4 / numa-pools=4 / wpp / no-pmode / no-pme / no-psnr / no-ssim / log-level=2 / input-csp=1 / input-res=1920x800 / interlace=0 / total-frames=173424 / level-idc=41 / high-tier=1 / uhd-bd=0 / ref=5 / no-allow-non-conformance / no-repeat-headers / annexb / no-aud / no-hrd / info / hash=0 / no-temporal-layers / open-gop / min-keyint=23 / keyint=240 / gop-lookahead=0 / bframes=10 / b-adapt=2 / b-pyramid / bframe-bias=0 / rc-lookahead=40 / lookahead-slices=4 / scenecut=40 / radl=0 / no-intra-refresh / ctu=64 / min-cu-size=8 / rect / amp / max-tu-size=32 / tu-inter-depth=3 / tu-intra-depth=3 / limit-tu=4 / rdoq-level=1 / dynamic-rd=0.00 / no-ssim-rd / signhide / no-tskip / nr-intra=0 / nr-inter=0 / no-constrained-intra / no-strong-intra-smoothing / max-merge=3 / limit-refs=2 / limit-modes / me=3 / subme=7 / merange=57 / temporal-mvp / weightp / weightb / no-analyze-src-pics / deblock=-3:-3 / no-sao / no-sao-non-deblock / rd=4 / no-early-skip / rskip / no-fast-intra / no-tskip-fast / no-cu-lossless / no-b-intra / no-splitrd-skip / rdpenalty=0 / psy-rd=2.00 / psy-rdoq=1.00 / no-rd-refine / no-lossless / cbqpoffs=0 / crqpoffs=0 / rc=crf / crf=18.0 / qcomp=0.60 / qpstep=4 / stats-write=0 / stats-read=0 / vbv-maxrate=50000 / vbv-bufsize=50000 / vbv-init=0.9 / crf-max=0.0 / crf-min=0.0 / ipratio=1.40 / pbratio=1.30 / aq-mode=1 / aq-strength=0.90 / cutree / zone-count=0 / no-strict-cbr / qg-size=32 / no-rc-grain / qpmax=69 / qpmin=0 / no-const-vbv / sar=1 / overscan=0 / videoformat=5 / range=0 / colorprim=1 / transfer=1 / colormatrix=1 / chromaloc=0 / display-window=0 / max-cll=0,0 / min-luma=0 / max-luma=1023 / log2-max-poc-lsb=8 / vui-timing-info / vui-hrd-info / slices=1 / no-opt-qp-pps / no-opt-ref-list-length-pps / no-multi-pass-opt-rps / scenecut-bias=0.05 / no-opt-cu-delta-qp / no-aq-motion / no-hdr / no-hdr-opt / no-dhdr10-opt / no-idr-recovery-sei / analysis-reuse-level=5 / scale-factor=0 / refine-intra=0 / refine-inter=0 / refine-mv=0 / no-limit-sao / ctu-info=0 / no-lowpass-dct / refine-mv-type=0 / copy-pic=1 / max-ausize-factor=1.0 / no-dynamic-refine / no-single-sei
    Language                    : English
    Default                     : Yes
    Forced                      : No
    Color range                 : Limited
    Color primaries             : BT.709
    Transfer characteristics    : BT.709
    Matrix coefficients         : BT.709

    Audio #1
    ID                          : 2
    Format                      : AC-3
    Format/Info                 : Audio Coding 3
    Format settings, Endianness : Big
    Codec ID                    : A_AC3
    Duration                    : 2 h 0 min
    Bit rate mode               : Constant
    Bit rate                    : 640 kb/s
    Channel(s)                  : 6 channels
    Channel positions           : Front: L C R, Side: L R, LFE
    Sampling rate               : 48.0 kHz
    Frame rate                  : 31.250 FPS (1536 SPF)
    Bit depth                   : 16 bits
    Compression mode            : Lossy
    Stream size                 : 552 MiB (8%)
    Title                       : MVO Киномания
    Language                    : Russian
    Service kind                : Complete Main
    Default                     : Yes
    Forced                      : No

    Audio #2
    ID                          : 3
    Format                      : AC-3
    Format/Info                 : Audio Coding 3
    Format settings, Endianness : Big
    Codec ID                    : A_AC3
    Duration                    : 2 h 0 min
    Bit rate mode               : Constant
    Bit rate                    : 448 kb/s
    Channel(s)                  : 6 channels
    Channel positions           : Front: L C R, Side: L R, LFE
    Sampling rate               : 48.0 kHz
    Frame rate                  : 31.250 FPS (1536 SPF)
    Bit depth                   : 16 bits
    Compression mode            : Lossy
    Stream size                 : 386 MiB (5%)
    Title                       : DVO Союз-Видео
    Language                    : Russian
    Service kind                : Complete Main
    Default                     : No
    Forced                      : No

    Audio #3
    ID                          : 4
    Format                      : AC-3
    Format/Info                 : Audio Coding 3
    Format settings, Endianness : Big
    Codec ID                    : A_AC3
    Duration                    : 2 h 0 min
    Bit rate mode               : Constant
    Bit rate                    : 384 kb/s
    Channel(s)                  : 6 channels
    Channel positions           : Front: L C R, Side: L R, LFE
    Sampling rate               : 48.0 kHz
    Frame rate                  : 31.250 FPS (1536 SPF)
    Bit depth                   : 16 bits
    Compression mode            : Lossy
    Stream size                 : 331 MiB (5%)
    Title                       : AVO Гаврилов
    Language                    : Russian
    Service kind                : Complete Main
    Default                     : No
    Forced                      : No

    Audio #4
    ID                          : 5
    Format                      : AC-3
    Format/Info                 : Audio Coding 3
    Format settings, Endianness : Big
    Codec ID                    : A_AC3
    Duration                    : 2 h 0 min
    Bit rate mode               : Constant
    Bit rate                    : 384 kb/s
    Channel(s)                  : 6 channels
    Channel positions           : Front: L C R, Side: L R, LFE
    Sampling rate               : 48.0 kHz
    Frame rate                  : 31.250 FPS (1536 SPF)
    Bit depth                   : 16 bits
    Compression mode            : Lossy
    Stream size                 : 331 MiB (5%)
    Title                       : AVO Живов
    Language                    : Russian
    Service kind                : Complete Main
    Default                     : No
    Forced                      : No

    Audio #5
    ID                          : 6
    Format                      : AC-3
    Format/Info                 : Audio Coding 3
    Format settings, Endianness : Big
    Codec ID                    : A_AC3
    Duration                    : 2 h 0 min
    Bit rate mode               : Constant
    Bit rate                    : 384 kb/s
    Channel(s)                  : 6 channels
    Channel positions           : Front: L C R, Side: L R, LFE
    Sampling rate               : 48.0 kHz
    Frame rate                  : 31.250 FPS (1536 SPF)
    Bit depth                   : 16 bits
    Compression mode            : Lossy
    Stream size                 : 331 MiB (5%)
    Language                    : English
    Service kind                : Complete Main
    Default                     : No
    Forced                      : No

    Text #1
    ID                          : 7
    Format                      : UTF-8
    Codec ID                    : S_TEXT/UTF8
    Codec ID/Info               : UTF-8 Plain Text
    Duration                    : 1 h 52 min
    Bit rate                    : 76 b/s
    Count of elements           : 1293
    Stream size                 : 63.2 KiB (0%)
    Language                    : Russian
    Default                     : No
    Forced                      : No

    Text #2
    ID                          : 8
    Format                      : UTF-8
    Codec ID                    : S_TEXT/UTF8
    Codec ID/Info               : UTF-8 Plain Text
    Duration                    : 1 h 50 min
    Bit rate                    : 50 b/s
    Count of elements           : 1366
    Stream size                 : 40.9 KiB (0%)
    Language                    : English
    Default                     : No
    Forced                      : No

    Menu
    00:00:00.000                : en:Chapter 1
    00:09:05.920                : en:Chapter 2
    00:22:07.034                : en:Chapter 3
    00:32:35.870                : en:Chapter 4
    00:47:33.934                : en:Chapter 5
    01:03:52.703                : en:Chapter 6
    01:15:14.593                : en:Chapter 7
    01:28:16.207                : en:Chapter 8
    01:36:53.849                : en:Chapter 9
    01:47:25.021                : en:Chapter 10

    Свернуть


    Скриншоты
    [screen]https://img11.lostpic.net/2018/07/08/cdef2ecf13b151aa018cbb7e8bef6d05.png[/screen][screen]https://img11.lostpic.net/2018/07/08/d0a9bb070a9a1db7de0027258cde0cbd.png[/screen][screen]https://img11.lostpic.net/2018/07/08/3e73e2a2514ea0c90ec35c0041d6a8ea.png[/screen][screen]https://img11.lostpic.net/2018/07/08/5a9477a6bb8771fd3bc135ea7ff98894.png[/screen][screen]https://img11.lostpic.net/2018/07/08/df8791dc9f496c073866f16268f1dd37.png[/screen][screen]https://img11.lostpic.net/2018/07/08/3c6294fdc49146596bbaa9675f03ac70.png[/screen][screen]https://img11.lostpic.net/2018/07/08/447b63cd53ba5e037fc5e5715a09a00e.png[/screen][screen]https://img11.lostpic.net/2018/07/08/fa14c4d007d36b09d6bcc12d969e5fc6.png[/screen]Свернуть


    [img]http://img12.lostpic.net/2018/06/13/f93dd06ce8a9e50557abf5deee63edc8.jpg[/img]

    [img]http://img12.lostpic.net/2018/05/26/a5cc9fcbea7f546191d7fa6f256aa4a2.gif[/img]
    Инструкция по скачиванию
     1  Качаем uTorrent версии 2.0 и выше
     2  После установки, жмем выше под постером на ссылку Скачать [MediaGet] или Скачать .torrent
     3  Открываем скачанный файл через соответствующий клиент: MediaGet или uTorrent
     4  Ждем пока подключатся участники
     5  Качаем
    Комментарии о  Долгий поцелуй на ночь / The Long Kiss Goodnight | BDRip-HEVC 1080p 
    Ближайшее в кино
    Вверх