• Игры для PS4
  • Игры для PS3
  • Игры для XBOX360
  • Игры для PC
  • Игры для PS2
  • Игры для PSP
  • Для телефонов
  • Музыка
  • Книги / Журналы
  • Обои
  • Опрос
    Откуда Вы о нас узнали?
      0
    • От знакомых2,1,false,300,full
    • Из социальных сетей2,2,false,300,full
    • Из поисковых систем2,3,false,300,full
    • Другое2,4,false,300,full
    Статистика
    Всего онлайн -
    Гостей -
    Пользователей -
    Короли трекера
    
    Благодарности () Закрыть
    Быстрее загружает сайты Экономит интернет—трафик Меняет оформление страницы ВК Блокирует всю рекламу на сайтах Загружает торренты как µTorrent клиент Объеденяет все твои чаты из соц. сетей в один Проигрывает твою музыку не заходя во ВКонтакте
    Новый интернет-браузер
    Orbitum
    Скачать
    и многое другое... Подробности на сайте производителя
    Название: Портрет совершенства
    Оригинальное название: Picture Perfect
    Год выпуска: 1997
    Выпущено: США, 20th century fox
    Жанр:  Драма, мелодрама, комедия
    Режиссер: Гленн Гордон Карон
    В ролях: Дженнифер Энистон, Джей Мор, Кевин Бэйкон, Олимпия Дукакис, Иллеана Дуглас, Кевин Данн, Энн Твоми, Фэйт Принс, Джон Ротмен, Пол Кэссел

    О фильме: Кейт работает в компании уже несколько лет и мечтает о скорейшем продвижении по службе. Но начальство не рассматривает её кандидатуру, так как она не имеет собственной семьи. Ради продвижения в фирме Кейт решается представить парня со случайной фотографии за своего жениха. Но начальство хочет познакомиться лично. Именно по этому, Кейт приходиться разыскивать парня и уговаривать исполнить роль её жениха за деньги. Но постепенно, играя роль, они начинают испытывать друг к другу настоящие чувства!

    Продолжительность: 01:41:47
    Перевод: Профессиональный многоголосый, профессиональный двухголосый, авторский
    Субтитры: Русские, английские
    Навигация по главам: Есть

    Файл
    Качество: WEB-DL 1080p
    Видео: MPEG-4 AVC, 8551 Кбит/сек, 1920x1040, 23,976 кадра/сек
    Аудио #1: AC3, 2 ch, 192 Кбит/сек | Русский, профессиональный (двухголосый закадровый) Премьер Видео Фильм
    Аудио #2: AC3, 6 ch, 448 Кбит/сек | Русский, профессиональный (многоголосый закадровый) R5
    Аудио #3: AC3, 2 ch, 192 Кбит/сек | Русский, авторский (одноголосый закадровый) Николай Антонов
    Аудио #4: EAC3, 6 ch, 640 Кбит/сек | Английский, оригинал



    Скриншоты
    [screen]https://img11.lostpic.net/2018/07/07/554a1678c90ede09255bd1cefa810f10.png[/screen][screen]https://img11.lostpic.net/2018/07/07/4e4308e73c14452397081ca6b58a67f4.png[/screen][screen]https://img11.lostpic.net/2018/07/07/e2f0f51ac796f8e60d11b9e4dadf8c9c.png[/screen][screen]https://img11.lostpic.net/2018/07/07/9e162e00aa1642a1b7d205ab2a98ffa3.png[/screen][screen]https://img11.lostpic.net/2018/07/07/1c8c2dd1ef7aece3ba9066fe2fa45322.png[/screen][screen]https://img11.lostpic.net/2018/07/07/5281789f2504124291b623ae6f735ee3.png[/screen][screen]https://img11.lostpic.net/2018/07/07/e2f0f51ac796f8e60d11b9e4dadf8c9c.png[/screen][screen]https://img11.lostpic.net/2018/07/07/3772597d27421880c95bd5c50591f9e4.png[/screen]Свернуть


    Инфо-файл
    Общее
    Уникальный идентификатор                 : 240809912798070695374354043614969230855 (0xB52A4D5CBCBD4BDF8AB4AA63E7B47607)
    Полное имя                               : Портрет.совершенства.1997.WEB-DL.1080p.mkv
    Формат                                   : Matroska
    Версия формата                           : Version 2
    Размер файла                             : 7,27 Гбайт
    Продолжительность                        : 1 ч. 41 м.
    Режим общего битрейта                    : Переменный
    Общий поток                              : 10,2 Мбит/сек
    Дата кодирования                         : UTC 2018-07-07 00:02:45
    Программа кодирования                    : mkvmerge v5.8.0 ("No Sleep / Pillow") built on Sep  2 2012 15:37:04
    Библиотека кодирования                   : libebml v1.2.3 + libmatroska v1.3.0

    Видео
    Идентификатор                            : 1
    Формат                                   : AVC
    Формат/Информация                        : Advanced Video Codec
    Профиль формата                          : High@L4
    Настройки формата                        : CABAC / 4 Ref Frames
    Параметр CABAC формата                   : Да
    Параметр RefFrames формата               : 4 кадра
    Идентификатор кодека                     : V_MPEG4/ISO/AVC
    Продолжительность                        : 1 ч. 41 м.
    Вид битрейта                             : Переменный
    Битрейт                                  : 8551 Кбит/сек
    Максимальный битрейт                     : 15,0 Мбит/сек
    Ширина                                   : 1920 пикселей
    Высота                                   : 1040 пикселей
    Соотношение сторон                       : 1,85:1
    Режим частоты кадров                     : Постоянный
    Частота кадров                           : 23,976 (24000/1001) кадра/сек
    Цветовое пространство                    : YUV
    Субдискретизация насыщенности            : 4:2:0
    Битовая глубина                          : 8 бит
    Тип развёртки                            : Прогрессивная
    Бит/(Пиксели*Кадры)                      : 0.179
    Размер потока                            : 6,08 Гбайт (84%)
    Библиотека кодирования                   : x264 core 148 r2623 d5b2374
    Настройки программы                      : cabac=1 / ref=4 / deblock=1:-1:-1 / analyse=0x3:0x133 / me=umh / subme=9 / psy=1 / psy_rd=1.00:0.15 / mixed_ref=1 / me_range=24 / chroma_me=1 / trellis=2 / 8x8dct=1 / cqm=0 / deadzone=21,11 / fast_pskip=1 / chroma_qp_offset=-3 / threads=32 / lookahead_threads=5 / sliced_threads=0 / nr=150 / decimate=1 / interlaced=0 / bluray_compat=0 / constrained_intra=0 / bframes=8 / b_pyramid=2 / b_adapt=2 / b_bias=0 / direct=3 / weightb=1 / open_gop=0 / weightp=2 / keyint=120 / keyint_min=61 / scenecut=0 / intra_refresh=0 / rc_lookahead=120 / rc=crf / mbtree=1 / crf=18.0 / qcomp=0.60 / qpmin=0 / qpmax=69 / qpstep=4 / vbv_maxrate=15000 / vbv_bufsize=31250 / crf_max=0.0 / nal_hrd=vbr / filler=0 / ip_ratio=1.40 / aq=3:1.00
    Язык                                     : English
    Default                                  : Да
    Forced                                   : Нет
    Цветовой диапазон                        : Limited
    Основные цвета                           : BT.709
    Характеристики трансфера                 : BT.709
    Коэффициенты матрицы                     : BT.709

    Аудио #1
    Идентификатор                            : 2
    Формат                                   : AC-3
    Формат/Информация                        : Audio Coding 3
    Идентификатор кодека                     : A_AC3
    Продолжительность                        : 1 ч. 41 м.
    Вид битрейта                             : Постоянный
    Битрейт                                  : 192 Кбит/сек
    Каналы                                   : 2 канала
    Расположение каналов                     : Front: L R
    Частота                                  : 48,0 КГц
    Частота кадров                           : 31,250 кадров/сек (1536 SPF)
    Битовая глубина                          : 16 бит
    Метод сжатия                             : С потерями
    Размер потока                            : 140 Мбайт (2%)
    Заголовок                                : DVO | Премьер Видео Фильм
    Язык                                     : Russian
    По умолчанию                             : Да
    Принудительно                            : Нет

    Аудио #2
    Идентификатор                            : 3
    Формат                                   : AC-3
    Формат/Информация                        : Audio Coding 3
    Идентификатор кодека                     : A_AC3
    Продолжительность                        : 1 ч. 41 м.
    Вид битрейта                             : Постоянный
    Битрейт                                  : 448 Кбит/сек
    Каналы                                   : 6 каналов
    Расположение каналов                     : Front: L C R, Side: L R, LFE
    Частота                                  : 48,0 КГц
    Частота кадров                           : 31,250 кадров/сек (1536 SPF)
    Битовая глубина                          : 16 бит
    Метод сжатия                             : С потерями
    Размер потока                            : 326 Мбайт (4%)
    Заголовок                                : MVO | R5
    Язык                                     : Russian
    По умолчанию                             : Нет
    Принудительно                            : Нет

    Аудио #3
    Идентификатор                            : 4
    Формат                                   : AC-3
    Формат/Информация                        : Audio Coding 3
    Идентификатор кодека                     : A_AC3
    Продолжительность                        : 1 ч. 41 м.
    Вид битрейта                             : Постоянный
    Битрейт                                  : 192 Кбит/сек
    Каналы                                   : 2 канала
    Расположение каналов                     : Front: L R
    Частота                                  : 48,0 КГц
    Частота кадров                           : 31,250 кадров/сек (1536 SPF)
    Битовая глубина                          : 16 бит
    Метод сжатия                             : С потерями
    Размер потока                            : 140 Мбайт (2%)
    Заголовок                                : AVO | Н. Антонов
    Язык                                     : Russian
    По умолчанию                             : Нет
    Принудительно                            : Нет

    Аудио #4
    Идентификатор                            : 5
    Формат                                   : E-AC-3
    Формат/Информация                        : Enhanced Audio Coding 3
    Идентификатор кодека                     : A_EAC3
    Продолжительность                        : 1 ч. 41 м.
    Вид битрейта                             : Постоянный
    Битрейт                                  : 640 Кбит/сек
    Каналы                                   : 6 каналов
    Расположение каналов                     : Front: L C R, Side: L R, LFE
    Частота                                  : 48,0 КГц
    Частота кадров                           : 187,500 кадров/сек (256 SPF)
    Метод сжатия                             : С потерями
    Размер потока                            : 466 Мбайт (6%)
    Заголовок                                : Original
    Язык                                     : English
    По умолчанию                             : Нет
    Принудительно                            : Нет

    Текст #1
    Идентификатор                            : 6
    Формат                                   : UTF-8
    Идентификатор кодека                     : S_TEXT/UTF8
    Идентификатор кодека/Информация          : UTF-8 Plain Text
    Язык                                     : Russian
    По умолчанию                             : Нет
    Принудительно                            : Нет

    Текст #2
    Идентификатор                            : 7
    Формат                                   : UTF-8
    Идентификатор кодека                     : S_TEXT/UTF8
    Идентификатор кодека/Информация          : UTF-8 Plain Text
    Язык                                     : English
    По умолчанию                             : Нет
    Принудительно                            : Нет

    Текст #3
    Идентификатор                            : 8
    Формат                                   : UTF-8
    Идентификатор кодека                     : S_TEXT/UTF8
    Идентификатор кодека/Информация          : UTF-8 Plain Text
    Заголовок                                : SDH
    Язык                                     : English
    По умолчанию                             : Нет
    Принудительно                            : Нет

    Меню
    00:00:00.000                             : en:Studio Logos
    00:00:25.000                             : en:Kate"s asks Brad to leave
    00:01:51.000                             : en:Kate works hard on her career, Opening Credits
    00:04:11.000                             : en:Kate proposes an idea to advertise the product
    00:05:46.000                             : en:Kate dreams of having a billboard
    00:06:23.000                             : en:Sam talks to Kate
    00:07:26.000                             : en:Mercer announces new positions
    00:08:06.000                             : en:Darcy and Kate discuss their jobs
    00:08:45.000                             : en:Rita helps Kate get ready for the wedding
    00:10:02.000                             : en:Kate attends Susan and Sajit"s wedding
    00:10:34.000                             : en:Susan thanks everyone for being a part of the wedding
    00:12:23.000                             : en:Kate meets Nick outside the reception
    00:14:32.000                             : en:Kate gets the bride"s bouquet
    00:15:58.000                             : en:Mercer talks to Kate about her lifestyle
    00:18:34.000                             : en:Darcy tells Kate about her story
    00:21:25.000                             : en:Kate"s colleagues inquire about Nick
    00:22:05.000                             : en:Kate goes to a party and sees Sam
    00:25:46.000                             : en:Kate and Sam chat over dinner
    00:26:31.000                             : en:Kate stays the night
    00:27:43.000                             : en:Sam talks to Kate about their affair
    00:30:34.000                             : en:Rita pays Kate a visit
    00:32:57.000                             : en:Kate talks to Darcy about her new bad girl image
    00:33:55.000                             : en:Sam notices Kate more and more
    00:34:55.000                             : en:Sam starts to develop real feelings towards Kate
    00:39:07.000                             : en:Kate wakes up to see Nick on the News
    00:40:03.000                             : en:Mercer wants Kate to bring Nick to a dinner
    00:41:19.000                             : en:Kate persuades Nick to have dinner with her
    00:45:26.000                             : en:Rita wants to meet Nick
    00:46:18.000                             : en:Nick arrives early
    00:47:25.000                             : en:Kate prepares Nick for dinner
    00:51:54.000                             : en:Sam gets jealous of Nick
    00:54:04.000                             : en:Kate and Nick share a moment together
    00:56:14.000                             : en:Nick learns more about Kate
    00:57:47.000                             : en:Nick talks about his actual job
    01:02:11.000                             : en:Nick doesn"t want to end his relationship with Kate
    01:04:16.000                             : en:Kate tries to find a way to start a fight with Nick
    01:07:00.000                             : en:Kate blames Nick of cheating on her
    01:10:48.000                             : en:Kate checks up on Nick
    01:12:25.000                             : en:Kate tells Sam about her fight with Nick
    01:13:55.000                             : en:Rita calls Kate and speaks with Nick
    01:19:03.000                             : en:Office gossip spreads about Kate
    01:21:07.000                             : en:Kate and Darcy meet about the results
    01:23:00.000                             : en:Nick visits Kate at work
    01:26:00.000                             : en:Nick leaves the money
    01:27:09.000                             : en:Kate calls off the presentation
    01:30:23.000                             : en:Mercer asks Kate to consider her options
    01:32:36.000                             : en:Kate finds Nick while he is working
    01:39:02.000                             : en:End CreditsСвернуть


    Дополнительная информация
    • Исходник видео WEB-DL Amazon.Свернуть


    Сборка: [img]http://i1.imageban.ru/out/2018/02/13/db08a675822da337df05f97bda2ce544.gif[/img] [img]http://i2.imageban.ru/out/2018/06/09/3e40bafdab66c4a60d118eadd265cbc1.gif[/img]
    Похожие раздачи Искать похожие
    Инструкция по скачиванию
     1  Качаем uTorrent версии 2.0 и выше
     2  После установки, жмем выше под постером на ссылку Скачать [MediaGet] или Скачать .torrent
     3  Открываем скачанный файл через соответствующий клиент: MediaGet или uTorrent
     4  Ждем пока подключатся участники
     5  Качаем
    Комментарии о  Портрет совершенства / Picture Perfect | WEB-DL 1080p 
    Ближайшее в кино
    Вверх