• Игры для PS4
  • Игры для PS3
  • Игры для XBOX360
  • Игры для PC
  • Игры для PS2
  • Игры для PSP
  • Для телефонов
  • Музыка
  • Книги / Журналы
  • Обои
  • Опрос
    Удобен ли сайт в использовании?
      0
    • Очень удобен, все понятно1,1,false,300,full
    • Удобен1,2,false,300,full
    • Средне1,3,false,300,full
    • Неудобен, трудно ориентироваться1,4,false,300,full
    • Совсем неудобен1,5,false,300,full
    Статистика
    Всего онлайн -
    Гостей -
    Пользователей -
    Короли трекера
    
    Благодарности () Закрыть
    Быстрее загружает сайты Экономит интернет—трафик Меняет оформление страницы ВК Блокирует всю рекламу на сайтах Загружает торренты как µTorrent клиент Объеденяет все твои чаты из соц. сетей в один Проигрывает твою музыку не заходя во ВКонтакте
    Новый интернет-браузер
    Orbitum
    Скачать
    и многое другое... Подробности на сайте производителя
    Название: Законы привлекательности
    Оригинальное название: Laws of Attraction
    Год выпуска: 2004
    Выпущено: Ирландия, Великобритания, Германия, Deep River Productions, Fern Valley Limited, Initial Entertainment Group (IEG), Intermedia Productions, Irish DreamTime, MHF Zweite Academy Film, Mobius Pictures, Stratus Film Co.
    Жанр:  Комедия, мелодрама
    Режиссер: Питер Хауит
    В ролях: Пирс Броснан, Джулианна Мур, Паркер Поузи, Майкл Шин, Джонни Майерс, Майк Дойл

    О фильме: Два успешных адвоката по бракоразводным делам, Дэниел Рафферти и Одри Вудс, представляя своих клиентов, нередко оказываются по разные стороны баррикад. Но встречи в зале судебных заседаний и за его пределами приводят к закономерному итогу — их ждет новое свидание в суде, но на этот раз им придется встать на место своих клиентов…

    Продолжительность: 01:30:06
    Перевод: Дублированный, профессиональный многоголосый, авторский
    Субтитры: Русские, английские
    Навигация по главам: Есть

    Файл
    Качество: WEB-DL 1080p
    Видео: MPEG-4 AVC, 12,4 Мбит/сек, 1920x816, 23,976 кадра/сек
    Аудио #1: AC3, 6 ch, 448 Кбит/сек | Русский, профессиональный (полное дублирование) R5
    Аудио #2: AC3, 6 ch, 448 Кбит/сек | Русский, профессиональный (многоголосый закадровый) Tycoon-Studio
    Аудио #3: AC3, 6 ch, 448 Кбит/сек | Русский, авторский (одноголосый закадровый) Евгений Рудой
    Аудио #4: AC3, 2 ch, 192 Кбит/сек | Русский, авторский (одноголосый закадровый) Сергей Визгунов
    Аудио #5: AC3, 6 ch, 384 Кбит/сек | Украинский, профессиональный (многоголосый закадровый)
    Аудио #6: AC3, 6 ch, 448 Кбит/сек | Английский, оригинал, DVD
    Аудио #7: EAC3, 2 ch, 224 Кбит/сек | Английский, оригинал, WEB



    Скриншоты
    [screen]https://img11.lostpic.net/2018/07/07/b3f69ee473976234fda8611969eb1b7e.png[/screen][screen]https://img11.lostpic.net/2018/07/07/e9a0820892ffbc9cb664ac1b28739510.png[/screen][screen]https://img11.lostpic.net/2018/07/07/6b5789bc88eadeb912bddbdfe389973a.png[/screen][screen]https://img11.lostpic.net/2018/07/07/34b63ffa0f97aa315da909468b368e04.png[/screen][screen]https://img11.lostpic.net/2018/07/07/fede88f77f189ba9adc2c90bf3f86f94.png[/screen][screen]https://img11.lostpic.net/2018/07/07/a5a74fd2dbca6ffed28277d613099a0b.png[/screen][screen]https://img11.lostpic.net/2018/07/07/07a92fa613331e22b254fad0276fba4b.png[/screen][screen]https://img11.lostpic.net/2018/07/07/1e4bebbc6e65ddb56e28d46074292d8d.png[/screen]Свернуть


    Инфо-файл
    Общее
    Уникальный идентификатор                 : 224089014421687263191976834542297021901 (0xA895F96C44B785E6940BED4EEAEDFDCD)
    Полное имя                               : Законы.привлекательности.2004.WEB-DL.1080p.mkv
    Формат                                   : Matroska
    Версия формата                           : Version 2
    Размер файла                             : 9,61 Гбайт
    Продолжительность                        : 1 ч. 30 м.
    Режим общего битрейта                    : Переменный
    Общий поток                              : 15,3 Мбит/сек
    Дата кодирования                         : UTC 2018-07-05 15:28:07
    Программа кодирования                    : mkvmerge v5.8.0 ("No Sleep / Pillow") built on Sep  2 2012 15:37:04
    Библиотека кодирования                   : libebml v1.2.3 + libmatroska v1.3.0

    Видео
    Идентификатор                            : 1
    Формат                                   : AVC
    Формат/Информация                        : Advanced Video Codec
    Профиль формата                          : High@L4
    Настройки формата                        : CABAC / 4 Ref Frames
    Параметр CABAC формата                   : Да
    Параметр RefFrames формата               : 4 кадра
    Идентификатор кодека                     : V_MPEG4/ISO/AVC
    Продолжительность                        : 1 ч. 30 м.
    Вид битрейта                             : Переменный
    Битрейт                                  : 12,4 Мбит/сек
    Максимальный битрейт                     : 15,0 Мбит/сек
    Ширина                                   : 1920 пикселей
    Высота                                   : 816 пикселей
    Соотношение сторон                       : 2,35:1
    Режим частоты кадров                     : Постоянный
    Частота кадров                           : 23,976 (24000/1001) кадра/сек
    Цветовое пространство                    : YUV
    Субдискретизация насыщенности            : 4:2:0
    Битовая глубина                          : 8 бит
    Тип развёртки                            : Прогрессивная
    Бит/(Пиксели*Кадры)                      : 0.330
    Размер потока                            : 7,79 Гбайт (81%)
    Библиотека кодирования                   : x264 core 148 r2623 d5b2374
    Настройки программы                      : cabac=1 / ref=4 / deblock=1:-1:-1 / analyse=0x3:0x133 / me=umh / subme=9 / psy=1 / psy_rd=1.00:0.15 / mixed_ref=1 / me_range=24 / chroma_me=1 / trellis=2 / 8x8dct=1 / cqm=0 / deadzone=21,11 / fast_pskip=1 / chroma_qp_offset=-3 / threads=25 / lookahead_threads=4 / sliced_threads=0 / nr=150 / decimate=1 / interlaced=0 / bluray_compat=0 / constrained_intra=0 / bframes=8 / b_pyramid=2 / b_adapt=2 / b_bias=0 / direct=3 / weightb=1 / open_gop=0 / weightp=2 / keyint=120 / keyint_min=61 / scenecut=0 / intra_refresh=0 / rc_lookahead=120 / rc=crf / mbtree=1 / crf=18.0 / qcomp=0.60 / qpmin=0 / qpmax=69 / qpstep=4 / vbv_maxrate=15000 / vbv_bufsize=31250 / crf_max=0.0 / nal_hrd=vbr / filler=0 / ip_ratio=1.40 / aq=3:1.00
    Язык                                     : English
    Default                                  : Да
    Forced                                   : Нет
    Цветовой диапазон                        : Limited
    Основные цвета                           : BT.709
    Характеристики трансфера                 : BT.709
    Коэффициенты матрицы                     : BT.709

    Аудио #1
    Идентификатор                            : 2
    Формат                                   : AC-3
    Формат/Информация                        : Audio Coding 3
    Идентификатор кодека                     : A_AC3
    Продолжительность                        : 1 ч. 30 м.
    Вид битрейта                             : Постоянный
    Битрейт                                  : 448 Кбит/сек
    Каналы                                   : 6 каналов
    Расположение каналов                     : Front: L C R, Side: L R, LFE
    Частота                                  : 48,0 КГц
    Частота кадров                           : 31,250 кадров/сек (1536 SPF)
    Битовая глубина                          : 16 бит
    Метод сжатия                             : С потерями
    Размер потока                            : 289 Мбайт (3%)
    Заголовок                                : Дублированный (R5)
    Язык                                     : Russian
    По умолчанию                             : Да
    Принудительно                            : Нет

    Аудио #2
    Идентификатор                            : 3
    Формат                                   : AC-3
    Формат/Информация                        : Audio Coding 3
    Идентификатор кодека                     : A_AC3
    Продолжительность                        : 1 ч. 30 м.
    Вид битрейта                             : Постоянный
    Битрейт                                  : 448 Кбит/сек
    Каналы                                   : 6 каналов
    Расположение каналов                     : Front: L C R, Side: L R, LFE
    Частота                                  : 48,0 КГц
    Частота кадров                           : 31,250 кадров/сек (1536 SPF)
    Битовая глубина                          : 16 бит
    Метод сжатия                             : С потерями
    Размер потока                            : 289 Мбайт (3%)
    Заголовок                                : MVO | Tycoon-Studio
    Язык                                     : Russian
    По умолчанию                             : Нет
    Принудительно                            : Нет

    Аудио #3
    Идентификатор                            : 4
    Формат                                   : AC-3
    Формат/Информация                        : Audio Coding 3
    Идентификатор кодека                     : A_AC3
    Продолжительность                        : 1 ч. 30 м.
    Вид битрейта                             : Постоянный
    Битрейт                                  : 448 Кбит/сек
    Каналы                                   : 6 каналов
    Расположение каналов                     : Front: L C R, Side: L R, LFE
    Частота                                  : 48,0 КГц
    Частота кадров                           : 31,250 кадров/сек (1536 SPF)
    Битовая глубина                          : 16 бит
    Метод сжатия                             : С потерями
    Размер потока                            : 289 Мбайт (3%)
    Заголовок                                : AVO | Е. Рудой
    Язык                                     : Russian
    По умолчанию                             : Нет
    Принудительно                            : Нет

    Аудио #4
    Идентификатор                            : 5
    Формат                                   : AC-3
    Формат/Информация                        : Audio Coding 3
    Идентификатор кодека                     : A_AC3
    Продолжительность                        : 1 ч. 30 м.
    Вид битрейта                             : Постоянный
    Битрейт                                  : 192 Кбит/сек
    Каналы                                   : 2 канала
    Расположение каналов                     : Front: L R
    Частота                                  : 48,0 КГц
    Частота кадров                           : 31,250 кадров/сек (1536 SPF)
    Битовая глубина                          : 16 бит
    Метод сжатия                             : С потерями
    Размер потока                            : 124 Мбайт (1%)
    Заголовок                                : AVO | С Визгунов
    Язык                                     : Russian
    По умолчанию                             : Нет
    Принудительно                            : Нет

    Аудио #5
    Идентификатор                            : 6
    Формат                                   : AC-3
    Формат/Информация                        : Audio Coding 3
    Идентификатор кодека                     : A_AC3
    Продолжительность                        : 1 ч. 30 м.
    Вид битрейта                             : Постоянный
    Битрейт                                  : 384 Кбит/сек
    Каналы                                   : 6 каналов
    Расположение каналов                     : Front: L C R, Side: L R, LFE
    Частота                                  : 48,0 КГц
    Частота кадров                           : 31,250 кадров/сек (1536 SPF)
    Битовая глубина                          : 16 бит
    Метод сжатия                             : С потерями
    Размер потока                            : 247 Мбайт (3%)
    Заголовок                                : MVO | Lipton DVD Collection
    Язык                                     : Ukrainian
    По умолчанию                             : Нет
    Принудительно                            : Нет

    Аудио #6
    Идентификатор                            : 7
    Формат                                   : AC-3
    Формат/Информация                        : Audio Coding 3
    Идентификатор кодека                     : A_AC3
    Продолжительность                        : 1 ч. 30 м.
    Вид битрейта                             : Постоянный
    Битрейт                                  : 448 Кбит/сек
    Каналы                                   : 6 каналов
    Расположение каналов                     : Front: L C R, Side: L R, LFE
    Частота                                  : 48,0 КГц
    Частота кадров                           : 31,250 кадров/сек (1536 SPF)
    Битовая глубина                          : 16 бит
    Метод сжатия                             : С потерями
    Размер потока                            : 289 Мбайт (3%)
    Заголовок                                : Original | 5.1
    Язык                                     : English
    По умолчанию                             : Нет
    Принудительно                            : Нет

    Аудио #7
    Идентификатор                            : 8
    Формат                                   : E-AC-3
    Формат/Информация                        : Enhanced Audio Coding 3
    Идентификатор кодека                     : A_EAC3
    Продолжительность                        : 1 ч. 30 м.
    Вид битрейта                             : Постоянный
    Битрейт                                  : 224 Кбит/сек
    Каналы                                   : 2 канала
    Расположение каналов                     : Front: L R
    Частота                                  : 48,0 КГц
    Частота кадров                           : 187,500 кадров/сек (256 SPF)
    Метод сжатия                             : С потерями
    Размер потока                            : 144 Мбайт (1%)
    Заголовок                                : Original | 2.0
    Язык                                     : English
    По умолчанию                             : Нет
    Принудительно                            : Нет

    Текст #1
    Идентификатор                            : 9
    Формат                                   : UTF-8
    Идентификатор кодека                     : S_TEXT/UTF8
    Идентификатор кодека/Информация          : UTF-8 Plain Text
    Заголовок                                : R5
    Язык                                     : Russian
    По умолчанию                             : Нет
    Принудительно                            : Нет

    Текст #2
    Идентификатор                            : 10
    Формат                                   : UTF-8
    Идентификатор кодека                     : S_TEXT/UTF8
    Идентификатор кодека/Информация          : UTF-8 Plain Text
    Заголовок                                : Tycoon
    Язык                                     : Russian
    По умолчанию                             : Нет
    Принудительно                            : Нет

    Текст #3
    Идентификатор                            : 11
    Формат                                   : UTF-8
    Идентификатор кодека                     : S_TEXT/UTF8
    Идентификатор кодека/Информация          : UTF-8 Plain Text
    Заголовок                                : 1
    Язык                                     : English
    По умолчанию                             : Нет
    Принудительно                            : Нет

    Текст #4
    Идентификатор                            : 12
    Формат                                   : UTF-8
    Идентификатор кодека                     : S_TEXT/UTF8
    Идентификатор кодека/Информация          : UTF-8 Plain Text
    Заголовок                                : 2
    Язык                                     : English
    По умолчанию                             : Нет
    Принудительно                            : Нет

    Текст #5
    Идентификатор                            : 13
    Формат                                   : UTF-8
    Идентификатор кодека                     : S_TEXT/UTF8
    Идентификатор кодека/Информация          : UTF-8 Plain Text
    Заголовок                                : SDH
    Язык                                     : English
    По умолчанию                             : Нет
    Принудительно                            : Нет

    Меню
    00:00:00.000                             : ru:Начало
    00:05:18.598                             : ru:Новый адвокат
    00:10:38.451                             : ru:"Я согласна"
    00:14:27.146                             : ru:Семинар
    00:19:39.458                             : ru:Обед экспромтом
    00:25:19.832                             : ru:Дело закрыто
    00:31:12.350                             : ru:Шанс встретиться с Сериной
    00:36:55.493                             : ru:Преждевременное торжество
    00:40:30.708                             : ru:Делёж имущества
    00:45:49.593                             : ru:Путешествие в Замок Рока
    00:52:40.104                             : ru:Опрос персонала
    00:58:38.462                             : ru:Выпили и поженились
    01:02:52.949                             : ru:Законный брак
    01:06:43.413                             : ru:Назад к работе
    01:15:11.087                             : ru:Примерение
    01:21:05.007                             : ru:Второй шанс
    01:25:33.508                             : ru:КонецСвернуть


    Дополнительная информация
    • Исходник видео WEB-DL Amazon.Свернуть


    Сборка: [img]http://i1.imageban.ru/out/2018/02/13/db08a675822da337df05f97bda2ce544.gif[/img] [img]http://i2.imageban.ru/out/2018/06/09/3e40bafdab66c4a60d118eadd265cbc1.gif[/img]
    Инструкция по скачиванию
     1  Качаем uTorrent версии 2.0 и выше
     2  После установки, жмем выше под постером на ссылку Скачать [MediaGet] или Скачать .torrent
     3  Открываем скачанный файл через соответствующий клиент: MediaGet или uTorrent
     4  Ждем пока подключатся участники
     5  Качаем
    Комментарии о  Законы привлекательности / Laws of Attraction | WEB-DL 1080p 
    Ближайшее в кино
    Вверх