• Игры для PS4
  • Игры для PS3
  • Игры для XBOX360
  • Игры для PC
  • Игры для PS2
  • Игры для PSP
  • Для телефонов
  • Музыка
  • Книги / Журналы
  • Обои
  • Опрос
    Откуда Вы о нас узнали?
      0
    • От знакомых2,1,false,300,full
    • Из социальных сетей2,2,false,300,full
    • Из поисковых систем2,3,false,300,full
    • Другое2,4,false,300,full
    Статистика
    Всего онлайн -
    Гостей -
    Пользователей -
    Короли трекера
    
    Благодарности () Закрыть
    Быстрее загружает сайты Экономит интернет—трафик Меняет оформление страницы ВК Блокирует всю рекламу на сайтах Загружает торренты как µTorrent клиент Объеденяет все твои чаты из соц. сетей в один Проигрывает твою музыку не заходя во ВКонтакте
    Новый интернет-браузер
    Orbitum
    Скачать
    и многое другое... Подробности на сайте производителя
    Название: Высоты Свободы
    Оригинальное название: Liberty Heights
    Год выпуска: 1999
    Выпущено: США, Warner Brothers
    Жанр:  Драма, комедия
    Режиссер: Бэрри Левинсон
    В ролях: Эдриан Броуди, Бен Фостер, Орландо Джоунс, Биби Ньюирт, Джо Мантенья, Ребека Джонсон, Дэвид Крамхолц, Ричард Клайн, Винсент Гуастаферро, Джастин Чэмберс, Кэролин Мерфи, Джеймс Пикенс мл., Франиа Рубинек, Энтони Андерсон, Кирстен Уоррен

    О фильме: Балтимор, осень 1954 года. Рассказ ведется от лица Бена, подростка из еврейского района, который с детства был уверен, что все люди в мире - евреи. Но довольно скоро ему приходится согласиться, что в Америке живут и не евреи. Отец Бена (Мантенья) занимается нелегальной лотереей. Его старший сын Силван (Броуди) учится в колледже. На вечеринке в день Хэллоуина он знакомится с божественно красивой блондинкой из богатой аристократической нееврейской семьи, влюбляется в нее с первого взгляда, но у нее уже есть избранник. Бен (Бен Фостер) любит мулатку Сильвию из своего класса. Сегрегацию в школах отменили, дети разных национальностей и цвета кожи теперь учатся вместе, но старая вражда, ненависть - все еще реальность. Родители запрещают детям встречаться, если у них разный цвет кожи или форма носа. О постепенном стирании границ между юными человеческими сердцами и рассказывает картина. Очень человечный фильм, смотрится естественно и правдиво.

    Продолжительность: 02:07:40
    Перевод: Профессиональный многоголосый
    Субтитры: Русские, английские
    Навигация по главам: Есть

    Файл
    Качество: WEB-DL 1080p
    Видео: MPEG-4 AVC, 11,1 Мбит/сек, 1920x1080, 23,976 кадра/сек
    Аудио #1: AC3, 2 ch, 192 Кбит/сек | Русский, профессиональный (многоголосый закадровый) Мост-видео
    Аудио #2: EAC3, 2 ch, 224 Кбит/сек | Английский, оригинал



    Скриншоты
    [screen]https://img11.lostpic.net/2018/07/07/e381a1928a37cb6f09daebf4099e236b.png[/screen][screen]https://img11.lostpic.net/2018/07/07/d4b16934d68c8825e11f08a19638a1a4.png[/screen][screen]https://img11.lostpic.net/2018/07/07/629bd80706d38fd4a7ed83453084df12.png[/screen][screen]https://img11.lostpic.net/2018/07/07/67f3ff8f849f3a2bb09304d16ed109f1.png[/screen][screen]https://img11.lostpic.net/2018/07/07/db0869c14ce871810bb8114ccc493922.png[/screen][screen]https://img11.lostpic.net/2018/07/07/4a93e7716167c31bc1700f1ded2f70f6.png[/screen][screen]https://img11.lostpic.net/2018/07/07/33ea0a830ab29470444cd0c32f53760b.png[/screen][screen]https://img11.lostpic.net/2018/07/07/58fb92a8a6f60e84733e54cbf5e21ba7.png[/screen]Свернуть


    Инфо-файл
    Общее
    Уникальный идентификатор                 : 204019575424593129664926310342513892144 (0x997CBDAF3C6B938698F157FE904F9B30)
    Полное имя                               : Высоты.Свободы.1999.WEB-DL.1080p.mkv
    Формат                                   : Matroska
    Версия формата                           : Version 2
    Размер файла                             : 10,5 Гбайт
    Продолжительность                        : 2 ч. 7 м.
    Режим общего битрейта                    : Переменный
    Общий поток                              : 11,8 Мбит/сек
    Дата кодирования                         : UTC 2018-07-05 18:15:25
    Программа кодирования                    : mkvmerge v5.8.0 ("No Sleep / Pillow") built on Sep  2 2012 15:37:04
    Библиотека кодирования                   : libebml v1.2.3 + libmatroska v1.3.0

    Видео
    Идентификатор                            : 1
    Формат                                   : AVC
    Формат/Информация                        : Advanced Video Codec
    Профиль формата                          : High@L4
    Настройки формата                        : CABAC / 4 Ref Frames
    Параметр CABAC формата                   : Да
    Параметр RefFrames формата               : 4 кадра
    Идентификатор кодека                     : V_MPEG4/ISO/AVC
    Продолжительность                        : 2 ч. 7 м.
    Вид битрейта                             : Переменный
    Битрейт                                  : 11,1 Мбит/сек
    Максимальный битрейт                     : 15,0 Мбит/сек
    Ширина                                   : 1920 пикселей
    Высота                                   : 1080 пикселей
    Соотношение сторон                       : 16:9
    Режим частоты кадров                     : Постоянный
    Частота кадров                           : 23,976 (24000/1001) кадра/сек
    Цветовое пространство                    : YUV
    Субдискретизация насыщенности            : 4:2:0
    Битовая глубина                          : 8 бит
    Тип развёртки                            : Прогрессивная
    Бит/(Пиксели*Кадры)                      : 0.224
    Размер потока                            : 9,93 Гбайт (94%)
    Библиотека кодирования                   : x264 core 148 r2623 d5b2374
    Настройки программы                      : cabac=1 / ref=4 / deblock=1:-1:-1 / analyse=0x3:0x133 / me=umh / subme=9 / psy=1 / psy_rd=1.00:0.15 / mixed_ref=1 / me_range=24 / chroma_me=1 / trellis=2 / 8x8dct=1 / cqm=0 / deadzone=21,11 / fast_pskip=1 / chroma_qp_offset=-3 / threads=34 / lookahead_threads=5 / sliced_threads=0 / nr=150 / decimate=1 / interlaced=0 / bluray_compat=0 / constrained_intra=0 / bframes=8 / b_pyramid=2 / b_adapt=2 / b_bias=0 / direct=3 / weightb=1 / open_gop=0 / weightp=2 / keyint=120 / keyint_min=61 / scenecut=0 / intra_refresh=0 / rc_lookahead=120 / rc=crf / mbtree=1 / crf=18.0 / qcomp=0.60 / qpmin=0 / qpmax=69 / qpstep=4 / vbv_maxrate=15000 / vbv_bufsize=31250 / crf_max=0.0 / nal_hrd=vbr / filler=0 / ip_ratio=1.40 / aq=3:1.00
    Язык                                     : English
    Default                                  : Да
    Forced                                   : Нет
    Цветовой диапазон                        : Limited
    Основные цвета                           : BT.709
    Характеристики трансфера                 : BT.709
    Коэффициенты матрицы                     : BT.709

    Аудио #1
    Идентификатор                            : 2
    Формат                                   : AC-3
    Формат/Информация                        : Audio Coding 3
    Идентификатор кодека                     : A_AC3
    Продолжительность                        : 2 ч. 7 м.
    Вид битрейта                             : Постоянный
    Битрейт                                  : 192 Кбит/сек
    Каналы                                   : 2 канала
    Расположение каналов                     : Front: L R
    Частота                                  : 48,0 КГц
    Частота кадров                           : 31,250 кадров/сек (1536 SPF)
    Битовая глубина                          : 16 бит
    Метод сжатия                             : С потерями
    Размер потока                            : 175 Мбайт (2%)
    Заголовок                                : MVO | Мост-видео
    Язык                                     : Russian
    По умолчанию                             : Да
    Принудительно                            : Нет

    Аудио #2
    Идентификатор                            : 3
    Формат                                   : E-AC-3
    Формат/Информация                        : Enhanced Audio Coding 3
    Идентификатор кодека                     : A_EAC3
    Продолжительность                        : 2 ч. 7 м.
    Вид битрейта                             : Постоянный
    Битрейт                                  : 224 Кбит/сек
    Каналы                                   : 2 канала
    Расположение каналов                     : Front: L R
    Частота                                  : 48,0 КГц
    Частота кадров                           : 187,500 кадров/сек (256 SPF)
    Метод сжатия                             : С потерями
    Размер потока                            : 205 Мбайт (2%)
    Заголовок                                : Original
    Язык                                     : English
    По умолчанию                             : Нет
    Принудительно                            : Нет

    Текст #1
    Идентификатор                            : 4
    Формат                                   : UTF-8
    Идентификатор кодека                     : S_TEXT/UTF8
    Идентификатор кодека/Информация          : UTF-8 Plain Text
    Заголовок                                : vjub58
    Язык                                     : Russian
    По умолчанию                             : Нет
    Принудительно                            : Нет

    Текст #2
    Идентификатор                            : 5
    Формат                                   : UTF-8
    Идентификатор кодека                     : S_TEXT/UTF8
    Идентификатор кодека/Информация          : UTF-8 Plain Text
    Заголовок                                : 1
    Язык                                     : English
    По умолчанию                             : Нет
    Принудительно                            : Нет

    Текст #3
    Идентификатор                            : 6
    Формат                                   : UTF-8
    Идентификатор кодека                     : S_TEXT/UTF8
    Идентификатор кодека/Информация          : UTF-8 Plain Text
    Заголовок                                : 2
    Язык                                     : English
    По умолчанию                             : Нет
    Принудительно                            : Нет

    Текст #4
    Идентификатор                            : 7
    Формат                                   : UTF-8
    Идентификатор кодека                     : S_TEXT/UTF8
    Идентификатор кодека/Информация          : UTF-8 Plain Text
    Заголовок                                : SDH
    Язык                                     : English
    По умолчанию                             : Нет
    Принудительно                            : Нет

    Меню
    00:00:00.000                             : en:1.
    00:10:00.704                             : en:2.
    00:20:00.704                             : en:3.
    00:30:00.704                             : en:4.
    00:40:00.704                             : en:5.
    00:50:00.704                             : en:6.
    01:00:00.704                             : en:7.
    01:10:00.704                             : en:8.
    01:20:00.704                             : en:9.
    01:30:00.704                             : en:10.
    01:40:00.704                             : en:11.
    01:50:00.704                             : en:12.
    02:00:00.704                             : en:13.Свернуть


    Дополнительная информация
    • Исходник видео WEB-DL Amazon.Свернуть


    Сборка: [img]http://i1.imageban.ru/out/2018/02/13/db08a675822da337df05f97bda2ce544.gif[/img] [img]http://i2.imageban.ru/out/2018/06/09/3e40bafdab66c4a60d118eadd265cbc1.gif[/img]
    Похожие раздачи Искать похожие
    Инструкция по скачиванию
     1  Качаем uTorrent версии 2.0 и выше
     2  После установки, жмем выше под постером на ссылку Скачать [MediaGet] или Скачать .torrent
     3  Открываем скачанный файл через соответствующий клиент: MediaGet или uTorrent
     4  Ждем пока подключатся участники
     5  Качаем
    Комментарии о  Высоты Свободы / Liberty Heights | WEB-DL 1080p 
    Ближайшее в кино
    Вверх