• Игры для PS4
  • Игры для PS3
  • Игры для XBOX360
  • Игры для PC
  • Игры для PS2
  • Игры для PSP
  • Для телефонов
  • Музыка
  • Книги / Журналы
  • Обои
  • Опрос
    Удобен ли сайт в использовании?
      0
    • Очень удобен, все понятно1,1,false,300,full
    • Удобен1,2,false,300,full
    • Средне1,3,false,300,full
    • Неудобен, трудно ориентироваться1,4,false,300,full
    • Совсем неудобен1,5,false,300,full
    Статистика
    Всего онлайн -
    Гостей -
    Пользователей -
    Короли трекера
    
    Благодарности () Закрыть
    Быстрее загружает сайты Экономит интернет—трафик Меняет оформление страницы ВК Блокирует всю рекламу на сайтах Загружает торренты как µTorrent клиент Объеденяет все твои чаты из соц. сетей в один Проигрывает твою музыку не заходя во ВКонтакте
    Новый интернет-браузер
    Оrbitum
    Скачать
    и многое другое... Подробности на сайте производителя
    Страна: США

    Жанр:  Боевик, криминал

    Год выпуска: 1993

    Продолжительность: 1:33:12

    Перевод: Профессиональный (двухголосый закадровый)

    Субтитры: Нет

    Режиссер: Майкл Прис / Michael Preece

    В ролях: Франко Колумбу, Арнольд Шварценеггер, Кен Керчевал, Элизабет Кайтан, Ван Кваттро, Джо Чампа, Лесли Минг, Одри Бруннер, Димитри Логотетис, Бак Холлэнд и др.

    Описание: Бывший сотрудник «Интерпола» по имени Франко Беретта, выходец с острова Сардиния, ушел на покой и наслаждается жизнью в Калифорнии. Неожиданно бывшие коллеги просят Франко о помощи: за последнее время в Америке появилось большое количество героина неизвестного происхождения. В спецслужбах полагают, что поступает он из Италии, а именно - с того острова, где Беретта родился и вырос. Проводя секретное расследование, Франко отправляться на Сардинию и вскоре понимает, что ему придется вступить в неравный бой с самой верхушкой итало-американской мафии...

    Рейтинг MPAA: R (Лицам до 17 лет обязательно присутствие взрослого!)



    Качество видео: DVDRip

    Исходник: DVD5

    Формат видео: AVI

    Видео: 576x432 (1.33:1), 25 fps, XviD build 64 ~979 kbps avg, 0.16 bit/pixel

    Аудио: 48 kHz, MPEG Layer 3, 2 ch, ~128.00 kbps avg

    Размер: 744.85 Mb ( 781 031 424 bytes ) - 1/6 DVD

    MediaInfo

    General
    Complete name                    : C:BerettaBeretta.avi
    Format                           : AVI
    Format/Info                      : Audio Video Interleave
    File size                        : 745 MiB
    Duration                         : 1h 33mn
    Overall bit rate                 : 1 117 Kbps
    Writing application              : VirtualDubMod 1.5.10.2 (build 2540/release)
    Writing library                  : VirtualDubMod build 2540/release

    Video
    ID                               : 0
    Format                           : MPEG-4 Visual
    Format profile                   : Advanced Simple@L5
    Format settings, BVOP            : 1
    Format settings, QPel            : No
    Format settings, GMC             : No warppoints
    Format settings, Matrix          : Custom
    Codec ID                         : XVID
    Codec ID/Hint                    : XviD
    Duration                         : 1h 33mn
    Bit rate                         : 979 Kbps
    Width                            : 576 pixels
    Height                           : 432 pixels
    Display aspect ratio             : 4:3
    Frame rate                       : 25.000 fps
    Color space                      : YUV
    Chroma subsampling               : 4:2:0
    Bit depth                        : 8 bits
    Scan type                        : Progressive
    Compression mode                 : Lossy
    Bits/(Pixel*Frame)               : 0.157
    Stream size                      : 653 MiB (88%)
    Writing library                  : XviD 64

    Audio
    ID                               : 1
    Format                           : MPEG Audio
    Format version                   : Version 1
    Format profile                   : Layer 3
    Mode                             : Joint stereo
    Codec ID                         : 55
    Codec ID/Hint                    : MP3
    Duration                         : 1h 33mn
    Bit rate mode                    : Constant
    Bit rate                         : 128 Kbps
    Channel(s)                       : 2 channels
    Sampling rate                    : 48.0 KHz
    Compression mode                 : Lossy
    Stream size                      : 85.3 MiB (11%)
    Alignment                        : Aligned on interleaves
    Interleave, duration             : 40 ms (1.00 video frame)
    Interleave, preload duration     : 504 ms
    Свернуть


    Скриншоты

    [screen]http://i29.fastpic.ru/big/2011/1007/71/ecc28b8daa4ad532de5af8f72ee3ad71.png[/screen][screen]http://i27.fastpic.ru/big/2011/1007/23/11e7199e448aa9a9fdeb366011419c23.png[/screen][screen]http://i27.fastpic.ru/big/2011/1007/e6/745a74e47b157f7055043597966b5ae6.png[/screen][screen]http://i27.fastpic.ru/big/2011/1007/4d/e2395c1139914fd9d5093618b9a2af4d.png[/screen]
    Свернуть
    Инструкция по скачиванию
     1  Качаем uTorrent версии 2.0 и выше
     2  После установки, жмем выше под постером на ссылку Скачать [MediaGet] или Скачать .torrent
     3  Открываем скачанный файл через соответствующий клиент: MediaGet или uTorrent
     4  Ждем пока подключатся участники
     5  Качаем
    Комментарии о  Остров Беретты / Beretta's Island | DVDRip 
    Ближайшее в кино
    Вверх