• Игры для PS4
  • Игры для PS3
  • Игры для XBOX360
  • Игры для PC
  • Игры для PS2
  • Игры для PSP
  • Для телефонов
  • Музыка
  • Книги / Журналы
  • Обои
  • Опрос
    Откуда Вы о нас узнали?
      0
    • От знакомых2,1,false,300,full
    • Из социальных сетей2,2,false,300,full
    • Из поисковых систем2,3,false,300,full
    • Другое2,4,false,300,full
    Статистика
    Всего онлайн -
    Гостей -
    Пользователей -
    Короли трекера
    
    Благодарности () Закрыть
    Быстрее загружает сайты Экономит интернет—трафик Меняет оформление страницы ВК Блокирует всю рекламу на сайтах Загружает торренты как µTorrent клиент Объеденяет все твои чаты из соц. сетей в один Проигрывает твою музыку не заходя во ВКонтакте
    Новый интернет-браузер
    Orbitum
    Скачать
    и многое другое... Подробности на сайте производителя
    Название: За гранью смерти / Вне закона
    Оригинальное название: Outside the Law
    Год выпуска: 2002
    Выпущено: США, Alexander, Enright & Associates
    Жанр:  Боевик
    Режиссер: Джорджи Монтези
    В ролях: Синтия Ротрок, Шеймус Девер, Джессика Стир, Джефф Уинкотт, Стефен Махт, Дэн Лория, Брэд Гринквист, Дон Харви, Петра Райт, Джеймс Лью

    О фильме: Еще вчера она была правительственным агентом. Сегодня она предана, очернена и преследуема. Единственный шанс спастись - успеть добраться до границы и исчезнуть за пределами страны. Но так ли легко это сделать, когда тебя ищут профессионалы? А уж если за тебя возьмется наркомафия, переправляющая через фронтир горы «белой смерти», вообще пиши пропало! Кольцо сжимается, и в этой ситуации есть лишь один способ избежать смерти — самой стать ходячей смертью для своих врагов!

    Продолжительность: 01:30:22
    Перевод: Профессиональный многоголосый, профессиональный двухголосый
    Субтитры: Английские
    Навигация по главам: Есть

    Файл
    Качество: WEB-DL 1080p
    Видео: MPEG-4 AVC, 13,9 Мбит/сек, 1920x1080, 23,976 кадра/сек
    Аудио #1: AC3, 5 ch, 448 Кбит/сек | Русский, профессиональный (многоголосый закадровый)
    Аудио #2: AC3, 2 ch, 192 Кбит/сек | Русский, профессиональный (двухголосый закадровый) НТВ+
    Аудио #3: EAC3, 6 ch, 640 Кбит/сек | Английский, оригинал



    Скриншоты
    [screen]https://img11.lostpic.net/2018/07/07/890fadec63ec6d5d1188afb83664aa0b.png[/screen][screen]https://img11.lostpic.net/2018/07/07/83b57a565983600ad92243bb57c599d0.png[/screen][screen]https://img11.lostpic.net/2018/07/07/74a4ee13154ab6da89b59bfb445cafee.png[/screen][screen]https://img11.lostpic.net/2018/07/07/caa5ecad69089b5862a1f244d1e0e966.png[/screen][screen]https://img11.lostpic.net/2018/07/07/a2719ba5d917b6d46b1bbc5aa184dfa4.png[/screen][screen]https://img11.lostpic.net/2018/07/07/6d0adea51354e0607b490c751b71d905.png[/screen][screen]https://img11.lostpic.net/2018/07/07/f56334fea7371585c38306428c0cc23b.png[/screen][screen]https://img11.lostpic.net/2018/07/07/e8de793f7d338c98bef127ecd62a5e47.png[/screen]Свернуть


    Инфо-файл
    Общее
    Уникальный идентификатор                 : 247769862444171639940532868615791766349 (0xBA66BD5F964D4DCBB830165A8BC8EB4D)
    Полное имя                               : За.гранью.смерти.2002.WEB-DL.1080p.mkv
    Формат                                   : Matroska
    Версия формата                           : Version 2
    Размер файла                             : 9,81 Гбайт
    Продолжительность                        : 1 ч. 30 м.
    Режим общего битрейта                    : Переменный
    Общий поток                              : 15,5 Мбит/сек
    Дата кодирования                         : UTC 2018-07-06 18:15:02
    Программа кодирования                    : mkvmerge v5.8.0 ("No Sleep / Pillow") built on Sep  2 2012 15:37:04
    Библиотека кодирования                   : libebml v1.2.3 + libmatroska v1.3.0

    Видео
    Идентификатор                            : 1
    Формат                                   : AVC
    Формат/Информация                        : Advanced Video Codec
    Профиль формата                          : High@L4
    Настройки формата                        : CABAC / 4 Ref Frames
    Параметр CABAC формата                   : Да
    Параметр RefFrames формата               : 4 кадра
    Идентификатор кодека                     : V_MPEG4/ISO/AVC
    Продолжительность                        : 1 ч. 30 м.
    Вид битрейта                             : Переменный
    Битрейт                                  : 13,9 Мбит/сек
    Максимальный битрейт                     : 15,0 Мбит/сек
    Ширина                                   : 1920 пикселей
    Высота                                   : 1080 пикселей
    Соотношение сторон                       : 16:9
    Режим частоты кадров                     : Постоянный
    Частота кадров                           : 23,976 (24000/1001) кадра/сек
    Цветовое пространство                    : YUV
    Субдискретизация насыщенности            : 4:2:0
    Битовая глубина                          : 8 бит
    Тип развёртки                            : Прогрессивная
    Бит/(Пиксели*Кадры)                      : 0.280
    Размер потока                            : 8,80 Гбайт (90%)
    Библиотека кодирования                   : x264 core 148 r2623 d5b2374
    Настройки программы                      : cabac=1 / ref=4 / deblock=1:-1:-1 / analyse=0x3:0x133 / me=umh / subme=9 / psy=1 / psy_rd=1.00:0.15 / mixed_ref=1 / me_range=24 / chroma_me=1 / trellis=2 / 8x8dct=1 / cqm=0 / deadzone=21,11 / fast_pskip=1 / chroma_qp_offset=-3 / threads=34 / lookahead_threads=5 / sliced_threads=0 / nr=150 / decimate=1 / interlaced=0 / bluray_compat=0 / constrained_intra=0 / bframes=8 / b_pyramid=2 / b_adapt=2 / b_bias=0 / direct=3 / weightb=1 / open_gop=0 / weightp=2 / keyint=120 / keyint_min=61 / scenecut=0 / intra_refresh=0 / rc_lookahead=120 / rc=crf / mbtree=1 / crf=18.0 / qcomp=0.60 / qpmin=0 / qpmax=69 / qpstep=4 / vbv_maxrate=15000 / vbv_bufsize=31250 / crf_max=0.0 / nal_hrd=vbr / filler=0 / ip_ratio=1.40 / aq=3:1.00
    Язык                                     : English
    Default                                  : Да
    Forced                                   : Нет
    Цветовой диапазон                        : Limited
    Основные цвета                           : BT.709
    Характеристики трансфера                 : BT.709
    Коэффициенты матрицы                     : BT.709

    Аудио #1
    Идентификатор                            : 2
    Формат                                   : AC-3
    Формат/Информация                        : Audio Coding 3
    Идентификатор кодека                     : A_AC3
    Продолжительность                        : 1 ч. 30 м.
    Вид битрейта                             : Постоянный
    Битрейт                                  : 448 Кбит/сек
    Каналы                                   : 5 каналов
    Расположение каналов                     : Front: L C R, Side: L R
    Частота                                  : 48,0 КГц
    Частота кадров                           : 31,250 кадров/сек (1536 SPF)
    Битовая глубина                          : 16 бит
    Метод сжатия                             : С потерями
    Размер потока                            : 290 Мбайт (3%)
    Заголовок                                : MVO
    Язык                                     : Russian
    По умолчанию                             : Да
    Принудительно                            : Нет

    Аудио #2
    Идентификатор                            : 3
    Формат                                   : AC-3
    Формат/Информация                        : Audio Coding 3
    Идентификатор кодека                     : A_AC3
    Продолжительность                        : 1 ч. 30 м.
    Вид битрейта                             : Постоянный
    Битрейт                                  : 192 Кбит/сек
    Каналы                                   : 2 канала
    Расположение каналов                     : Front: L R
    Частота                                  : 48,0 КГц
    Частота кадров                           : 31,250 кадров/сек (1536 SPF)
    Битовая глубина                          : 16 бит
    Метод сжатия                             : С потерями
    Размер потока                            : 124 Мбайт (1%)
    Заголовок                                : DVO | НТВ+
    Язык                                     : Russian
    По умолчанию                             : Нет
    Принудительно                            : Нет

    Аудио #3
    Идентификатор                            : 4
    Формат                                   : E-AC-3
    Формат/Информация                        : Enhanced Audio Coding 3
    Идентификатор кодека                     : A_EAC3
    Продолжительность                        : 1 ч. 30 м.
    Вид битрейта                             : Постоянный
    Битрейт                                  : 640 Кбит/сек
    Каналы                                   : 6 каналов
    Расположение каналов                     : Front: L C R, Side: L R, LFE
    Частота                                  : 48,0 КГц
    Частота кадров                           : 187,500 кадров/сек (256 SPF)
    Метод сжатия                             : С потерями
    Размер потока                            : 414 Мбайт (4%)
    Заголовок                                : Original
    Язык                                     : English
    По умолчанию                             : Нет
    Принудительно                            : Нет

    Текст #1
    Идентификатор                            : 5
    Формат                                   : UTF-8
    Идентификатор кодека                     : S_TEXT/UTF8
    Идентификатор кодека/Информация          : UTF-8 Plain Text
    Язык                                     : English
    По умолчанию                             : Нет
    Принудительно                            : Нет

    Текст #2
    Идентификатор                            : 6
    Формат                                   : UTF-8
    Идентификатор кодека                     : S_TEXT/UTF8
    Идентификатор кодека/Информация          : UTF-8 Plain Text
    Заголовок                                : SDH
    Язык                                     : English
    По умолчанию                             : Нет
    Принудительно                            : Нет

    Меню
    00:00:00.000                             : en:Chapter 1
    00:06:14.000                             : en:Chapter 2
    00:10:36.000                             : en:Chapter 3
    00:14:46.000                             : en:Chapter 4
    00:16:46.000                             : en:Chapter 5
    00:18:50.000                             : en:Chapter 6
    00:20:55.000                             : en:Chapter 7
    00:23:19.000                             : en:Chapter 8
    00:30:03.000                             : en:Chapter 9
    00:32:56.000                             : en:Chapter 10
    00:39:11.000                             : en:Chapter 11
    00:45:46.000                             : en:Chapter 12
    00:52:41.000                             : en:Chapter 13
    00:56:57.000                             : en:Chapter 14
    00:58:57.000                             : en:Chapter 15
    01:02:12.000                             : en:Chapter 16
    01:05:54.000                             : en:Chapter 17
    01:13:10.000                             : en:Chapter 18
    01:15:24.000                             : en:Chapter 19
    01:24:47.000                             : en:Chapter 20Свернуть


    Дополнительная информация
    • Исходник видео WEB-DL Amazon.Свернуть


    Сборка: [img]http://i1.imageban.ru/out/2018/02/13/db08a675822da337df05f97bda2ce544.gif[/img] [img]http://i2.imageban.ru/out/2018/06/09/3e40bafdab66c4a60d118eadd265cbc1.gif[/img]
    Инструкция по скачиванию
     1  Качаем uTorrent версии 2.0 и выше
     2  После установки, жмем выше под постером на ссылку Скачать [MediaGet] или Скачать .torrent
     3  Открываем скачанный файл через соответствующий клиент: MediaGet или uTorrent
     4  Ждем пока подключатся участники
     5  Качаем
    Комментарии о  За гранью смерти / Outside the Law | WEB-DL 1080p 
    Ближайшее в кино
    Вверх