• Игры для PS4
  • Игры для PS3
  • Игры для XBOX360
  • Игры для PC
  • Игры для PS2
  • Игры для PSP
  • Для телефонов
  • Музыка
  • Книги / Журналы
  • Обои
  • Опрос
    Откуда Вы о нас узнали?
      0
    • От знакомых2,1,false,300,full
    • Из социальных сетей2,2,false,300,full
    • Из поисковых систем2,3,false,300,full
    • Другое2,4,false,300,full
    Статистика
    Всего онлайн -
    Гостей -
    Пользователей -
    Короли трекера
    
    Благодарности () Закрыть
    Быстрее загружает сайты Экономит интернет—трафик Меняет оформление страницы ВК Блокирует всю рекламу на сайтах Загружает торренты как µTorrent клиент Объеденяет все твои чаты из соц. сетей в один Проигрывает твою музыку не заходя во ВКонтакте
    Новый интернет-браузер
    Orbitum
    Скачать
    и многое другое... Подробности на сайте производителя
    Информация о фильме
    Название: Жажда смерти
    Оригинальное название: Death Wish
    Год выхода: 2018
    Жанр: Боевик, триллер, криминал
    Режиссер: Элай Рот
    В ролях: Брюс Уиллис, Винсент Д`Онофрио, Элизабет Шу, Камила Морроне, Дин Норрис, Бо Напп, Кимберли Элиз, Лен Кариу, Джек Кеси, Ронни Джин Блевинс
    Описание: Пол Керси - хирург, привыкший вытаскивать людей с того света после криминальных разборок. Но после того, как его жена и дочь становятся жертвами уличной банды, а полиция бездействует, он берет карающий меч правосудия в свои руки. Видео изобретательных убийств преступников покоряют интернет-топы, а среди жителей города расходятся слухи о неуловимом народном мстителе, которому теперь принадлежит весь город. Он мстит бодро, весело и со вкусом.
    Страна: США
    Студия: Metro-Goldwyn-Mayer (MGM), Paramount Pictures
    Продолжительность: 01:46:37
    Перевод: Дублированный
    Файл
    Кодек: MPEG-2
    Качество: DVD-9 (Исходник US Blu-ray 1080р)
    Видео: MPEG2, NTSC 16:9 (720x480@853x480) VBR, 23,976 кадра/сек
    Звук: Русский DD 5.1 (384 Kbps), Английский / Испанский / Французский DD 5.1 (448 Kbps), Английский DD 2.0 (224 Kbps)





    DVDInfo

    Title:
    Size: 6.40 Gb ( 6 715 378 KBytes ) - DVD-9
    Enabled regions: 1, 2, 3, 4, 5, 6, 7, 8

    VTS_01 :
    Play Length: 01:46:37+00:11:43+00:02:06+00:02:25+00:00:56+00:02:14+00:01:45+00:01:09+00:00:10
    Video: NTSC 16:9 (720x480) VBR, Auto Pan&Scan
    Audio:
    Russian (Dolby AC3, 6 ch)
    English (Dolby AC3, 6 ch)
    English (Dolby AC3, 6 ch)
    English (Dolby AC3, 2 ch)
    Espanol (Dolby AC3, 6 ch)
    Francais (Dolby AC3, 6 ch)

    Menu Video:
    NTSC 4:3 (720x480) VBR
    Menu English Language Unit :
    Root Menu

    Свернуть


    MediaInfo


    Общее
    Полное имя                               : G:ААА2ЖАЖДА СМЕРТИVIDEO_TSVTS_01_1.VOB
    Формат                                   : MPEG-PS
    Размер файла                             : 1000 Мбайт
    Продолжительность                        : 17 м.
    Режим общего битрейта                    : Переменный
    Общий поток                              : 7884 Кбит/сек

    Видео
    Идентификатор                            : 224 (0xE0)
    Формат                                   : MPEG Video
    Версия формата                           : Version 2
    Профиль формата                          : Main@Main
    Параметр BVOP формата                    : Да
    Параметр матрицы формата                 : По умолчанию
    Параметр GOP формата                     : M=3, N=12
    Продолжительность                        : 17 м.
    Вид битрейта                             : Переменный
    Битрейт                                  : 5327 Кбит/сек
    Максимальный битрейт                     : 7408 Кбит/сек
    Ширина                                   : 720 пикселей
    Высота                                   : 480 пикселей
    Соотношение сторон                       : 16:9
    Частота кадров                           : 23,976 кадра/сек
    Стандарт вещания                         : NTSC
    Цветовое пространство                    : YUV
    Субдискретизация насыщенности            : 4:2:0
    Битовая глубина                          : 8 бит
    Тип развёртки                            : Прогрессивная
    Порядок развёртки                        : 2:3 Pulldown
    Метод сжатия                             : С потерями
    Бит/(Пиксели*Кадры)                      : 0.643
    TimeCode_FirstFrame                      : 00:00:00;00
    TimeCode_Source                          : Group of pictures header
    Размер потока                            : 676 Мбайт (68%)

    Аудио #1
    Идентификатор                            : 189 (0xBD)-128 (0x80)
    Формат                                   : AC-3
    Формат/Информация                        : Audio Coding 3
    Расширение режима                        : CM (complete main)
    Параметр Endianness формата              : Big
    Режим смешивания                         : DVD-Video
    Продолжительность                        : 17 м.
    Вид битрейта                             : Постоянный
    Битрейт                                  : 384 Кбит/сек
    Каналы                                   : 6 каналов
    Расположение каналов                     : Front: L C R, Side: L R, LFE
    Частота                                  : 48,0 КГц
    Битовая глубина                          : 16 бит
    Метод сжатия                             : С потерями
    Размер потока                            : 48,7 Мбайт (5%)

    Аудио #2
    Идентификатор                            : 189 (0xBD)-129 (0x81)
    Формат                                   : AC-3
    Формат/Информация                        : Audio Coding 3
    Расширение режима                        : CM (complete main)
    Параметр Endianness формата              : Big
    Режим смешивания                         : DVD-Video
    Продолжительность                        : 17 м.
    Вид битрейта                             : Постоянный
    Битрейт                                  : 448 Кбит/сек
    Каналы                                   : 6 каналов
    Расположение каналов                     : Front: L C R, Side: L R, LFE
    Частота                                  : 48,0 КГц
    Битовая глубина                          : 16 бит
    Метод сжатия                             : С потерями
    Размер потока                            : 56,8 Мбайт (6%)

    Аудио #3
    Идентификатор                            : 189 (0xBD)-130 (0x82)
    Формат                                   : AC-3
    Формат/Информация                        : Audio Coding 3
    Расширение режима                        : CM (complete main)
    Параметр Endianness формата              : Big
    Режим смешивания                         : DVD-Video
    Продолжительность                        : 17 м.
    Вид битрейта                             : Постоянный
    Битрейт                                  : 448 Кбит/сек
    Каналы                                   : 6 каналов
    Расположение каналов                     : Front: L C R, Side: L R, LFE
    Частота                                  : 48,0 КГц
    Битовая глубина                          : 16 бит
    Метод сжатия                             : С потерями
    Размер потока                            : 56,8 Мбайт (6%)

    Аудио #4
    Идентификатор                            : 189 (0xBD)-131 (0x83)
    Формат                                   : AC-3
    Формат/Информация                        : Audio Coding 3
    Расширение режима                        : CM (complete main)
    Параметр Endianness формата              : Big
    Режим смешивания                         : DVD-Video
    Продолжительность                        : 17 м.
    Вид битрейта                             : Постоянный
    Битрейт                                  : 224 Кбит/сек
    Каналы                                   : 2 канала
    Расположение каналов                     : Front: L R
    Частота                                  : 48,0 КГц
    Битовая глубина                          : 16 бит
    Метод сжатия                             : С потерями
    Размер потока                            : 28,4 Мбайт (3%)

    Аудио #5
    Идентификатор                            : 189 (0xBD)-132 (0x84)
    Формат                                   : AC-3
    Формат/Информация                        : Audio Coding 3
    Расширение режима                        : CM (complete main)
    Параметр Endianness формата              : Big
    Режим смешивания                         : DVD-Video
    Продолжительность                        : 17 м.
    Вид битрейта                             : Постоянный
    Битрейт                                  : 448 Кбит/сек
    Каналы                                   : 6 каналов
    Расположение каналов                     : Front: L C R, Side: L R, LFE
    Частота                                  : 48,0 КГц
    Битовая глубина                          : 16 бит
    Метод сжатия                             : С потерями
    Размер потока                            : 56,8 Мбайт (6%)

    Аудио #6
    Идентификатор                            : 189 (0xBD)-133 (0x85)
    Формат                                   : AC-3
    Формат/Информация                        : Audio Coding 3
    Расширение режима                        : CM (complete main)
    Параметр Endianness формата              : Big
    Режим смешивания                         : DVD-Video
    Продолжительность                        : 17 м.
    Вид битрейта                             : Постоянный
    Битрейт                                  : 448 Кбит/сек
    Каналы                                   : 6 каналов
    Расположение каналов                     : Front: L C R, Side: L R, LFE
    Частота                                  : 48,0 КГц
    Битовая глубина                          : 16 бит
    Метод сжатия                             : С потерями
    Размер потока                            : 56,8 Мбайт (6%)

    Меню

    Свернуть


    Похожие раздачи Искать похожие
    Инструкция по скачиванию
     1  Качаем uTorrent версии 2.0 и выше
     2  После установки, жмем выше под постером на ссылку Скачать [MediaGet] или Скачать .torrent
     3  Открываем скачанный файл через соответствующий клиент: MediaGet или uTorrent
     4  Ждем пока подключатся участники
     5  Качаем
    Комментарии о  Жажда смерти / Death Wish | DVD9 
    Ближайшее в кино
    Вверх