• Игры для PS4
  • Игры для PS3
  • Игры для XBOX360
  • Игры для PC
  • Игры для PS2
  • Игры для PSP
  • Для телефонов
  • Музыка
  • Книги / Журналы
  • Обои
  • Опрос
    Откуда Вы о нас узнали?
      0
    • От знакомых2,1,false,300,full
    • Из социальных сетей2,2,false,300,full
    • Из поисковых систем2,3,false,300,full
    • Другое2,4,false,300,full
    Статистика
    Всего онлайн -
    Гостей -
    Пользователей -
    Короли трекера
    
    Благодарности () Закрыть
    Быстрее загружает сайты Экономит интернет—трафик Меняет оформление страницы ВК Блокирует всю рекламу на сайтах Загружает торренты как µTorrent клиент Объеденяет все твои чаты из соц. сетей в один Проигрывает твою музыку не заходя во ВКонтакте
    Новый интернет-браузер
    Оrbitum
    Скачать
    и многое другое... Подробности на сайте производителя
    Страна: США
    Жанр:  Криминальный боевик
    Год выпуска: 1993
    Продолжительность: 01:33:12

    Перевод: Авторский (одноголосый закадровый) Антон Алексеев
    Субтитры: нет
    Режиссер: Майкл Прис / Michael Preece

    В ролях: Франко Колумбу, Кен Керчевал, Элизабет Кайтан, Ван Кваттро, Арнольд Шварценеггер, Джо Чампа, Таммара Соуза, Лесли Минг, Одри Бруннер, Бак Холлэнд

    Описание: Бывший сотрудник «Интерпола» по имени Франко Беретта, выходец с острова Сардиния, ушел на покой и наслаждается жизнью в Калифорнии. Неожиданно бывшие коллеги просят Франко о помощи: за последнее время в Америке появилось большое количество героина неизвестного происхождения.

    В спецслужбах полагают, что поступает он из Италии, а именно — с того острова, где Беретта родился и вырос. Проводя секретное расследование, Франко отправляться на Сардинию и вскоре понимает, что ему придется вступить в неравный бой с самой верхушкой итало-американской мафии.

    Доп. информация:
    Дорожка с А. Алексеевым синхронизирована и наложена ale_x2008 при помощи Adobe Audition, Sony Vegas и VirtualDubMod.

    За оцифрованную с VHS дорожку благодарим - Savely



    Качество видео: DVDRip
    Формат видео: AVI

    Видео: XviD, 640x480 (1.33:1), 25 fps, 1928 kbps avg, 0.25 bit/pixel
    Аудио: AC3 Dolby Digital, 48000Hz, 2/0 (L,R) ch (mono), 192.00 kbps avg
    MediaInfo

    Остров Беретты - Beretta"s Island [by ale_x2008].avi
    Format                      : AVI
    Format/Info                 : Audio Video Interleave
    File size                   : 1.39 GiB
    Duration                    : 1 h 33 min
    Overall bit rate            : 2 130 kb/s
    Movie name                  : Остров Беретты - Beretta"s Island [by ale_x2008]
    Director                    : by ale_x2008
    Writing application         : VirtualDubMod 1.5.10.2 (build 2540/release)
    Copyright                   : Edich2

    Video
    ID                          : 0
    Format                      : MPEG-4 Visual
    Format profile              : Simple@L3
    Format settings, BVOP       : 2
    Format settings, QPel       : No
    Format settings, GMC        : No warppoints
    Format settings, Matrix     : Default (H.263)
    Codec ID                    : XVID
    Codec ID/Hint               : XviD
    Duration                    : 1 h 33 min
    Bit rate                    : 1 929 kb/s
    Width                       : 640 pixels
    Height                      : 480 pixels
    Display aspect ratio        : 4:3
    Frame rate                  : 25.000 FPS
    Color space                 : YUV
    Chroma subsampling          : 4:2:0
    Bit depth                   : 8 bits
    Scan type                   : Progressive
    Compression mode            : Lossy
    Bits/(Pixel*Frame)          : 0.251
    Stream size                 : 1.26 GiB (91%)
    Writing library             : XviD 1.1.0 Beta2 (UTC 2005-04-04)

    Audio
    ID                          : 1
    Format                      : AC-3
    Format/Info                 : Audio Coding 3
    Mode extension              : CM (complete main)
    Format settings, Endianness : Big
    Codec ID                    : 2000
    Duration                    : 1 h 33 min
    Bit rate mode               : Constant
    Bit rate                    : 192 kb/s
    Channel(s)                  : 2 channels
    Channel positions           : Front: L R
    Sampling rate               : 48.0 kHz
    Frame rate                  : 31.250 FPS (1536 spf)
    Compression mode            : Lossy
    Stream size                 : 128 MiB (9%)
    Alignment                   : Split accross interleaves
    Interleave, duration        : 40  ms (1.00 video frame)
    Interleave, preload duratio : 500  ms

    Свернуть


    Скриншоты

    [screen]http://i2.imageban.ru/out/2017/01/17/95b2a5034f46eeea31dc0219f51b414e.png[/screen][screen]http://i4.imageban.ru/out/2017/01/17/8037e1076d4a8647924067b683b3ae8e.png[/screen][screen]http://i5.imageban.ru/out/2017/01/17/7448e277602e7f4d8c3f280a13a96d43.png[/screen][screen]http://i3.imageban.ru/out/2017/01/17/693056737acda4b2cf5a6371037a58ae.png[/screen][screen]http://i4.imageban.ru/out/2017/01/17/a64d80c1715906e857ae4b45cf3cb9c9.png[/screen][screen]http://i2.imageban.ru/out/2017/01/17/b86cbd36c5b5a7d47c95acf077703a4c.png[/screen]
    Свернуть
    Инструкция по скачиванию
     1  Качаем uTorrent версии 2.0 и выше
     2  После установки, жмем выше под постером на ссылку Скачать [MediaGet] или Скачать .torrent
     3  Открываем скачанный файл через соответствующий клиент: MediaGet или uTorrent
     4  Ждем пока подключатся участники
     5  Качаем
    Комментарии о  Остров Беретты / Beretta's Island | DVDRip 
    Ближайшее в кино
    Вверх