• Игры для PS4
  • Игры для PS3
  • Игры для XBOX360
  • Игры для PC
  • Игры для PS2
  • Игры для PSP
  • Для телефонов
  • Музыка
  • Книги / Журналы
  • Обои
  • Опрос
    Откуда Вы о нас узнали?
      0
    • От знакомых2,1,false,300,full
    • Из социальных сетей2,2,false,300,full
    • Из поисковых систем2,3,false,300,full
    • Другое2,4,false,300,full
    Статистика
    Всего онлайн -
    Гостей -
    Пользователей -
    Короли трекера
    
    Благодарности () Закрыть
    Быстрее загружает сайты Экономит интернет—трафик Меняет оформление страницы ВК Блокирует всю рекламу на сайтах Загружает торренты как µTorrent клиент Объеденяет все твои чаты из соц. сетей в один Проигрывает твою музыку не заходя во ВКонтакте
    Новый интернет-браузер
    Оrbitum
    Скачать
    и многое другое... Подробности на сайте производителя
    Название: Из Африки
    Оригинальное название: Out of Africa
    Год выпуска: 1985
    Выпущено: США, Universal Pictures, Mirage Enterprises
    Жанр:  Драма, мелодрама, приключения, биография
    Режиссер: Сидни Поллак
    В ролях: Мэрил Стрип, Роберт Редфорд, Клаус Мария Брандауэр, Майкл Кичен, Малик Боуэнс, Джозеф Тиака, Стивен Кинянджуи, Майкл Гоф, Сюзанна Хэмилтон, Рэйчел Кемпсон, Грэм Кроуден, Лесли Филлипс, Шэйн Риммер, Джоб Седа, Донал МакКанн, Кеннет Мэйсон, Тристрам Джеллинек, Стивен Б. Граймз, Бенни Янг, Аллаудин Куреши, Найвен Бойд, Иман, Питер Стронг, Аманда Паркин, Мюриэль Гросс, Энн Палмер, Кейт Пирсон

    О фильме: Начало века... Карен Бликсен отправляется в путешествие в Кению, где ее супруг-предприниматель выращивает кофе. Здесь, в самом сердце Африки, волею судеб Карен будет суждено встретить свою подлинную и единственную любовь.

    Продолжительность: 02:40:56
    Перевод: Профессиональный многоголосый, авторский
    Субтитры: Русские, английские
    Навигация по главам: Есть

    Файл
    Качество: BDRip 720p
    Видео: MPEG-4 AVC, 6268 Кбит/сек, 1274x690, 23,976 кадра/сек
    Аудио #1: AC3, 6 ch, 384 Кбит/сек | Русский, профессиональный (многоголосый закадровый) Universal Pictures
    Аудио #2: AC3, 2 ch, 192 Кбит/сек | Русский, профессиональный (многоголосый закадровый) Первый канал
    Аудио #3: AC3, 6 ch, 640 Кбит/сек | Русский, авторский (одноголосый закадровый) Юрий Живов
    Аудио #4: AC3, 2 ch, 192 Кбит/сек | Русский, авторский (одноголосый закадровый) Григорий Либергал
    Аудио #5: AC3, 6 ch, 640 Кбит/сек | Английский, оригинал



    Скриншоты
    [screen]https://img11.lostpic.net/2018/07/07/6fadbcf187bc7ca62dad5db1cc04feca.png[/screen][screen]https://img11.lostpic.net/2018/07/07/6a2869ea3f4b4275dd3efc0c2cb1a09b.png[/screen][screen]https://img11.lostpic.net/2018/07/07/e0ec15c6767bafb218abbf99d32020d9.png[/screen][screen]https://img11.lostpic.net/2018/07/07/920737c86423436f0a5dfbb39320a152.png[/screen][screen]https://img11.lostpic.net/2018/07/07/afeec322f290e0dc30e2cd60474f16fc.png[/screen][screen]https://img11.lostpic.net/2018/07/07/ed3889fde1463e11dcdb3f4b5f6093ed.png[/screen][screen]https://img11.lostpic.net/2018/07/07/9de68a64fd35b4dc8e1c6a5bc2cccbbb.png[/screen][screen]https://img11.lostpic.net/2018/07/07/29768508e1512ed22ac5254153f03e78.png[/screen]Свернуть


    Инфо-файл
    x264 [info]: frame I:1716  Avg QP:15.50  size:199908
    x264 [info]: frame P:51871 Avg QP:18.39  size: 72186
    x264 [info]: frame B:178085 Avg QP:20.00  size: 19548
    -----------------------------------------------------
    Общее
    Уникальный идентификатор                 : 192870379181983158147305923506527372555 (0x91197BDE96CF8BA49D2F7E65732D850B)
    Полное имя                               : Из.Африки.1985.REMASTERED.BDRip.720p.KORSAR.mkv
    Формат                                   : Matroska
    Версия формата                           : Version 2
    Размер файла                             : 8,92 Гбайт
    Продолжительность                        : 2 ч. 40 м.
    Общий поток                              : 7933 Кбит/сек
    Дата кодирования                         : UTC 2018-07-03 14:32:01
    Программа кодирования                    : mkvmerge v5.8.0 ("No Sleep / Pillow") built on Sep  2 2012 15:37:04
    Библиотека кодирования                   : libebml v1.2.3 + libmatroska v1.3.0

    Видео
    Идентификатор                            : 1
    Формат                                   : AVC
    Формат/Информация                        : Advanced Video Codec
    Профиль формата                          : High@L4.1
    Настройки формата                        : CABAC / 9 Ref Frames
    Параметр CABAC формата                   : Да
    Параметр RefFrames формата               : 9 кадров
    Идентификатор кодека                     : V_MPEG4/ISO/AVC
    Продолжительность                        : 2 ч. 40 м.
    Битрейт                                  : 6268 Кбит/сек
    Ширина                                   : 1274 пикселя
    Высота                                   : 690 пикселей
    Соотношение сторон                       : 1,85:1
    Режим частоты кадров                     : Постоянный
    Частота кадров                           : 23,976 (24000/1001) кадра/сек
    Цветовое пространство                    : YUV
    Субдискретизация насыщенности            : 4:2:0
    Битовая глубина                          : 8 бит
    Тип развёртки                            : Прогрессивная
    Бит/(Пиксели*Кадры)                      : 0.297
    Размер потока                            : 6,87 Гбайт (77%)
    Заголовок                                : RIP | MZMA
    Библиотека кодирования                   : x264 core 152 r2851kMod ba24899
    Настройки программы                      : cabac=1 / ref=9 / deblock=1:-3:-3 / analyse=0x3:0x113 / me=umh / subme=11 / psy=1 / fade_compensate=0.00 / psy_rd=1.00:0.00 / mixed_ref=1 / me_range=48 / chroma_me=1 / trellis=2 / 8x8dct=1 / cqm=0 / deadzone=21,11 / fast_pskip=0 / chroma_qp_offset=-2 / threads=6 / lookahead_threads=1 / sliced_threads=0 / nr=0 / decimate=0 / interlaced=0 / bluray_compat=0 / constrained_intra=0 / bframes=16 / b_pyramid=2 / b_adapt=2 / b_bias=0 / direct=3 / weightb=1 / open_gop=0 / weightp=2 / keyint=240 / keyint_min=23 / scenecut=40 / intra_refresh=0 / rc_lookahead=40 / rc=2pass / mbtree=0 / bitrate=6268 / ratetol=1.0 / qcomp=0.60 / qpmin=0 / qpmax=69 / qpstep=4 / cplxblur=20.0 / qblur=0.5 / vbv_maxrate=50000 / vbv_bufsize=62500 / nal_hrd=none / filler=0 / ip_ratio=1.40 / pb_ratio=1.30 / aq=3:0.70
    Язык                                     : English
    Default                                  : Да
    Forced                                   : Нет
    Цветовой диапазон                        : Limited
    Основные цвета                           : BT.709
    Характеристики трансфера                 : BT.709
    Коэффициенты матрицы                     : BT.709

    Аудио #1
    Идентификатор                            : 2
    Формат                                   : AC-3
    Формат/Информация                        : Audio Coding 3
    Идентификатор кодека                     : A_AC3
    Продолжительность                        : 2 ч. 40 м.
    Вид битрейта                             : Постоянный
    Битрейт                                  : 384 Кбит/сек
    Каналы                                   : 6 каналов
    Расположение каналов                     : Front: L C R, Side: L R, LFE
    Частота                                  : 48,0 КГц
    Частота кадров                           : 31,250 кадров/сек (1536 SPF)
    Битовая глубина                          : 16 бит
    Метод сжатия                             : С потерями
    Размер потока                            : 442 Мбайт (5%)
    Заголовок                                : MVO | Universal Pictures
    Язык                                     : Russian
    По умолчанию                             : Да
    Принудительно                            : Нет

    Аудио #2
    Идентификатор                            : 3
    Формат                                   : AC-3
    Формат/Информация                        : Audio Coding 3
    Идентификатор кодека                     : A_AC3
    Продолжительность                        : 2 ч. 40 м.
    Вид битрейта                             : Постоянный
    Битрейт                                  : 192 Кбит/сек
    Каналы                                   : 2 канала
    Расположение каналов                     : Front: L R
    Частота                                  : 48,0 КГц
    Частота кадров                           : 31,250 кадров/сек (1536 SPF)
    Битовая глубина                          : 16 бит
    Метод сжатия                             : С потерями
    Размер потока                            : 221 Мбайт (2%)
    Заголовок                                : MVO | Первый канал
    Язык                                     : Russian
    По умолчанию                             : Нет
    Принудительно                            : Нет

    Аудио #3
    Идентификатор                            : 4
    Формат                                   : AC-3
    Формат/Информация                        : Audio Coding 3
    Идентификатор кодека                     : A_AC3
    Продолжительность                        : 2 ч. 40 м.
    Вид битрейта                             : Постоянный
    Битрейт                                  : 448 Кбит/сек
    Каналы                                   : 6 каналов
    Расположение каналов                     : Front: L C R, Side: L R, LFE
    Частота                                  : 48,0 КГц
    Частота кадров                           : 31,250 кадров/сек (1536 SPF)
    Битовая глубина                          : 16 бит
    Метод сжатия                             : С потерями
    Размер потока                            : 516 Мбайт (6%)
    Заголовок                                : AVO | Ю. Живов
    Язык                                     : Russian
    По умолчанию                             : Нет
    Принудительно                            : Нет

    Аудио #4
    Идентификатор                            : 5
    Формат                                   : AC-3
    Формат/Информация                        : Audio Coding 3
    Идентификатор кодека                     : A_AC3
    Продолжительность                        : 2 ч. 40 м.
    Вид битрейта                             : Постоянный
    Битрейт                                  : 192 Кбит/сек
    Каналы                                   : 2 канала
    Расположение каналов                     : Front: L R
    Частота                                  : 48,0 КГц
    Частота кадров                           : 31,250 кадров/сек (1536 SPF)
    Битовая глубина                          : 16 бит
    Метод сжатия                             : С потерями
    Размер потока                            : 221 Мбайт (2%)
    Заголовок                                : AVO | Г. Либергал
    Язык                                     : Russian
    По умолчанию                             : Нет
    Принудительно                            : Нет

    Аудио #5
    Идентификатор                            : 6
    Формат                                   : AC-3
    Формат/Информация                        : Audio Coding 3
    Идентификатор кодека                     : A_AC3
    Продолжительность                        : 2 ч. 40 м.
    Вид битрейта                             : Постоянный
    Битрейт                                  : 448 Кбит/сек
    Каналы                                   : 6 каналов
    Расположение каналов                     : Front: L C R, Side: L R, LFE
    Частота                                  : 48,0 КГц
    Частота кадров                           : 31,250 кадров/сек (1536 SPF)
    Битовая глубина                          : 16 бит
    Метод сжатия                             : С потерями
    Размер потока                            : 516 Мбайт (6%)
    Заголовок                                : Original
    Язык                                     : English
    По умолчанию                             : Нет
    Принудительно                            : Нет

    Текст #1
    Идентификатор                            : 7
    Формат                                   : UTF-8
    Идентификатор кодека                     : S_TEXT/UTF8
    Идентификатор кодека/Информация          : UTF-8 Plain Text
    Заголовок                                : Forced
    Язык                                     : Russian
    По умолчанию                             : Да
    Принудительно                            : Нет

    Текст #2
    Идентификатор                            : 8
    Формат                                   : UTF-8
    Идентификатор кодека                     : S_TEXT/UTF8
    Идентификатор кодека/Информация          : UTF-8 Plain Text
    Заголовок                                : 1
    Язык                                     : Russian
    По умолчанию                             : Нет
    Принудительно                            : Нет

    Текст #3
    Идентификатор                            : 9
    Формат                                   : UTF-8
    Идентификатор кодека                     : S_TEXT/UTF8
    Идентификатор кодека/Информация          : UTF-8 Plain Text
    Заголовок                                : 2
    Язык                                     : Russian
    По умолчанию                             : Нет
    Принудительно                            : Нет

    Текст #4
    Идентификатор                            : 10
    Формат                                   : UTF-8
    Идентификатор кодека                     : S_TEXT/UTF8
    Идентификатор кодека/Информация          : UTF-8 Plain Text
    Язык                                     : English
    По умолчанию                             : Нет
    Принудительно                            : Нет

    Текст #5
    Идентификатор                            : 11
    Формат                                   : UTF-8
    Идентификатор кодека                     : S_TEXT/UTF8
    Идентификатор кодека/Информация          : UTF-8 Plain Text
    Заголовок                                : SDH
    Язык                                     : English
    По умолчанию                             : Нет
    Принудительно                            : Нет

    Меню
    00:00:00.000                             : en:1. I Had A Farm In Africa
    00:04:33.481                             : en:2. Main Titles
    00:07:33.118                             : en:3. Finch Hatton
    00:11:26.018                             : en:4. The Wedding
    00:17:17.953                             : en:5. Home
    00:22:30.348                             : en:6. The Kikuyu
    00:28:05.100                             : en:7. Houseguests
    00:37:11.853                             : en:8. War
    00:43:27.396                             : en:9. Supplies For The Baron
    00:57:36.661                             : en:10. Syphilis
    01:19:26.970                             : en:11. Down To The Mara
    01:28:30.555                             : en:12. A Shampoo and A Poem
    01:46:03.648                             : en:13. Black Water
    01:52:03.133                             : en:14. The View From Above
    02:11:05.232                             : en:15. God Is Coming
    02:25:18.209                             : en:16. An Accident In Tsavo
    02:32:40.692                             : en:17. A Song of Africa
    02:38:05.601                             : en:18. End TitlesСвернуть




    Похожие раздачи Искать похожие
    Инструкция по скачиванию
     1  Качаем uTorrent версии 2.0 и выше
     2  После установки, жмем выше под постером на ссылку Скачать [MediaGet] или Скачать .torrent
     3  Открываем скачанный файл через соответствующий клиент: MediaGet или uTorrent
     4  Ждем пока подключатся участники
     5  Качаем
    Комментарии о  Из Африки / Out of Africa | BDRip 720p 
    Ближайшее в кино
    Вверх