• Игры для PS4
  • Игры для PS3
  • Игры для XBOX360
  • Игры для PC
  • Игры для PS2
  • Игры для PSP
  • Для телефонов
  • Музыка
  • Книги / Журналы
  • Обои
  • Опрос
    Удобен ли сайт в использовании?
      0
    • Очень удобен, все понятно1,1,false,300,full
    • Удобен1,2,false,300,full
    • Средне1,3,false,300,full
    • Неудобен, трудно ориентироваться1,4,false,300,full
    • Совсем неудобен1,5,false,300,full
    Статистика
    Всего онлайн -
    Гостей -
    Пользователей -
    Короли трекера
    
    Благодарности () Закрыть
    Быстрее загружает сайты Экономит интернет—трафик Меняет оформление страницы ВК Блокирует всю рекламу на сайтах Загружает торренты как µTorrent клиент Объеденяет все твои чаты из соц. сетей в один Проигрывает твою музыку не заходя во ВКонтакте
    Новый интернет-браузер
    Orbitum
    Скачать
    и многое другое... Подробности на сайте производителя
    Название: Зависимость
    Оригинальное название: The Addiction
    Год выпуска: 1995
    Выпущено: США, Fast Films, Guild, October Films
    Жанр:  Ужасы, драма, вампиры
    Режиссер: Абель Феррара
    В ролях: Лили Тейлор, Кристофер Уокен, Аннабелла Шиорра, Иди Фалко, Пол Кэлдерон, Фредро Старр, Кэтрин Эрбе, Майкл Империоли, Джамал Симмонс, Майкл Фелла

    О фильме: Молодая студентка философского факультета подвергается нападению вампирши прямо на улице. Разумеется, сразу после этого в организме и сознании ее начинают происходить необратимые перемены. Но что интересно: интеллектуальный потенциал девушки только растет, новые способности позволяют ей защитить диссертацию. Однако вечеринка по поводу защиты превращается в кровавую оргию…

    Продолжительность: 01:22:22
    Перевод: Профессиональный двухголосый
    Субтитры: Русские, английские
    Навигация по главам: Есть

    Файл
    Качество: HDRip-AVC
    Видео: MPEG-4 AVC, 6537 Кбит/сек, 1112x600, 23,976 кадра/сек
    Аудио #1: AC3, 6 ch, 384 Кбит/сек | Русский, профессиональный (двухголосый закадровый)
    Аудио #2: AC3, 6 ch, 448 Кбит/сек | Английский, оригинал



    Скриншоты
    [screen]https://img11.lostpic.net/2018/07/07/0e3faee2bcb86ed1ff22f028e23659cb.png[/screen][screen]https://img11.lostpic.net/2018/07/07/61757861d746dca10929e16f3b310dfa.png[/screen][screen]https://img11.lostpic.net/2018/07/07/69bfe5060c02435ed4b178f2aaead73a.png[/screen][screen]https://img11.lostpic.net/2018/07/07/93f04500e94fc99742739823a1f3a4a4.png[/screen][screen]https://img11.lostpic.net/2018/07/07/7611d1671890c0503a0cdf9995193cdb.png[/screen][screen]https://img11.lostpic.net/2018/07/07/db22eb843b24f486333f791b2a48bc02.png[/screen][screen]https://img11.lostpic.net/2018/07/07/e8937754a17412076a5aedf226cde9a1.png[/screen][screen]https://img11.lostpic.net/2018/07/07/2f73bd88a785417b49a0672a194644a3.png[/screen]Свернуть


    Инфо-файл
    x264 [info]: frame I:553   Avg QP:15.97  size:107880
    x264 [info]: frame P:24028 Avg QP:18.55  size: 56666
    x264 [info]: frame B:93899 Avg QP:20.51  size: 27833
    ----------------------------------------------------
    Общее
    Уникальный идентификатор                 : 237109613318448011965430504779124263694 (0xB261A6832F155B06B1EE43068EA34B0E)
    Полное имя                               : Зависимость.1995.HDRip-AVC.KORSAR.mkv
    Формат                                   : Matroska
    Версия формата                           : Version 2
    Размер файла                             : 4,24 Гбайт
    Продолжительность                        : 1 ч. 22 м.
    Общий поток                              : 7366 Кбит/сек
    Дата кодирования                         : UTC 2018-07-04 20:01:11
    Программа кодирования                    : mkvmerge v5.8.0 ("No Sleep / Pillow") built on Sep  2 2012 15:37:04
    Библиотека кодирования                   : libebml v1.2.3 + libmatroska v1.3.0

    Видео
    Идентификатор                            : 1
    Формат                                   : AVC
    Формат/Информация                        : Advanced Video Codec
    Профиль формата                          : High@L4.1
    Настройки формата                        : CABAC / 12 Ref Frames
    Параметр CABAC формата                   : Да
    Параметр RefFrames формата               : 12 кадров
    Идентификатор кодека                     : V_MPEG4/ISO/AVC
    Продолжительность                        : 1 ч. 22 м.
    Битрейт                                  : 6537 Кбит/сек
    Ширина                                   : 1112 пикселей
    Высота                                   : 600 пикселей
    Соотношение сторон                       : 1,85:1
    Режим частоты кадров                     : Постоянный
    Частота кадров                           : 23,976 (24000/1001) кадра/сек
    Цветовое пространство                    : YUV
    Субдискретизация насыщенности            : 4:2:0
    Битовая глубина                          : 8 бит
    Тип развёртки                            : Прогрессивная
    Бит/(Пиксели*Кадры)                      : 0.409
    Размер потока                            : 3,67 Гбайт (87%)
    Заголовок                                : RIP | MZMA
    Библиотека кодирования                   : x264 core 152 r2851kMod ba24899
    Настройки программы                      : cabac=1 / ref=12 / deblock=1:-3:-3 / analyse=0x3:0x113 / me=umh / subme=11 / psy=1 / fade_compensate=0.00 / psy_rd=1.00:0.00 / mixed_ref=1 / me_range=48 / chroma_me=1 / trellis=2 / 8x8dct=1 / cqm=0 / deadzone=21,11 / fast_pskip=0 / chroma_qp_offset=-2 / threads=6 / lookahead_threads=1 / sliced_threads=0 / nr=0 / decimate=0 / interlaced=0 / bluray_compat=0 / constrained_intra=0 / bframes=16 / b_pyramid=2 / b_adapt=2 / b_bias=0 / direct=3 / weightb=1 / open_gop=0 / weightp=2 / keyint=240 / keyint_min=23 / scenecut=40 / intra_refresh=0 / rc_lookahead=40 / rc=2pass / mbtree=0 / bitrate=6537 / ratetol=1.0 / qcomp=0.60 / qpmin=0 / qpmax=69 / qpstep=4 / cplxblur=20.0 / qblur=0.5 / vbv_maxrate=50000 / vbv_bufsize=62500 / nal_hrd=none / filler=0 / ip_ratio=1.40 / pb_ratio=1.30 / aq=1:1.00
    Язык                                     : English
    Default                                  : Да
    Forced                                   : Нет
    Цветовой диапазон                        : Limited
    Основные цвета                           : BT.709
    Характеристики трансфера                 : BT.709
    Коэффициенты матрицы                     : BT.709

    Аудио #1
    Идентификатор                            : 2
    Формат                                   : AC-3
    Формат/Информация                        : Audio Coding 3
    Идентификатор кодека                     : A_AC3
    Продолжительность                        : 1 ч. 22 м.
    Вид битрейта                             : Постоянный
    Битрейт                                  : 384 Кбит/сек
    Каналы                                   : 6 каналов
    Расположение каналов                     : Front: L C R, Side: L R, LFE
    Частота                                  : 48,0 КГц
    Частота кадров                           : 31,250 кадров/сек (1536 SPF)
    Битовая глубина                          : 16 бит
    Метод сжатия                             : С потерями
    Размер потока                            : 226 Мбайт (5%)
    Заголовок                                : DVO
    Язык                                     : Russian
    По умолчанию                             : Да
    Принудительно                            : Нет

    Аудио #2
    Идентификатор                            : 3
    Формат                                   : AC-3
    Формат/Информация                        : Audio Coding 3
    Идентификатор кодека                     : A_AC3
    Продолжительность                        : 1 ч. 22 м.
    Вид битрейта                             : Постоянный
    Битрейт                                  : 448 Кбит/сек
    Каналы                                   : 6 каналов
    Расположение каналов                     : Front: L C R, Side: L R, LFE
    Частота                                  : 48,0 КГц
    Частота кадров                           : 31,250 кадров/сек (1536 SPF)
    Битовая глубина                          : 16 бит
    Метод сжатия                             : С потерями
    Размер потока                            : 264 Мбайт (6%)
    Заголовок                                : Original
    Язык                                     : English
    По умолчанию                             : Нет
    Принудительно                            : Нет

    Текст #1
    Идентификатор                            : 4
    Формат                                   : UTF-8
    Идентификатор кодека                     : S_TEXT/UTF8
    Идентификатор кодека/Информация          : UTF-8 Plain Text
    Язык                                     : Russian
    По умолчанию                             : Нет
    Принудительно                            : Нет

    Текст #2
    Идентификатор                            : 5
    Формат                                   : UTF-8
    Идентификатор кодека                     : S_TEXT/UTF8
    Идентификатор кодека/Информация          : UTF-8 Plain Text
    Язык                                     : English
    По умолчанию                             : Нет
    Принудительно                            : Нет

    Меню
    00:00:00.000                             : en:Chapter 01
    00:04:31.110                             : en:Chapter 02
    00:07:43.802                             : en:Chapter 03
    00:12:10.319                             : en:Chapter 04
    00:18:17.560                             : en:Chapter 05
    00:24:30.683                             : en:Chapter 06
    00:27:25.107                             : en:Chapter 07
    00:34:34.912                             : en:Chapter 08
    00:40:37.399                             : en:Chapter 09
    00:44:19.120                             : en:Chapter 10
    00:46:55.276                             : en:Chapter 11
    00:50:41.127                             : en:Chapter 12
    00:54:10.837                             : en:Chapter 13
    00:59:52.303                             : en:Chapter 14
    01:06:49.344                             : en:Chapter 15
    01:12:31.186                             : en:Chapter 16
    01:16:58.953                             : en:Chapter 17
    01:19:24.599                             : en:Chapter 18Свернуть


    Похожие раздачи Искать похожие
    Инструкция по скачиванию
     1  Качаем uTorrent версии 2.0 и выше
     2  После установки, жмем выше под постером на ссылку Скачать [MediaGet] или Скачать .torrent
     3  Открываем скачанный файл через соответствующий клиент: MediaGet или uTorrent
     4  Ждем пока подключатся участники
     5  Качаем
    Комментарии о  Зависимость / The Addiction | HDRip-AVC 
    Ближайшее в кино
    Вверх