• Игры для PS4
  • Игры для PS3
  • Игры для XBOX360
  • Игры для PC
  • Игры для PS2
  • Игры для PSP
  • Для телефонов
  • Музыка
  • Книги / Журналы
  • Обои
  • Опрос
    Откуда Вы о нас узнали?
      0
    • От знакомых2,1,false,300,full
    • Из социальных сетей2,2,false,300,full
    • Из поисковых систем2,3,false,300,full
    • Другое2,4,false,300,full
    Статистика
    Всего онлайн -
    Гостей -
    Пользователей -
    Короли трекера
    
    Благодарности () Закрыть
    Страна: США
    Жанр:  Боевик, мелодрама, комедия
    Год выпуска: 1993
    Продолжительность: 01:42:56

    Перевод: Авторский (одноголосый закадровый) Юрий Живов
    Субтитры: нет
    Режиссер: Боб Бралвер / Bob Bralver

    В ролях: Дэвид Брэдли, Ли Рейес, Энн Дюпон, Пэт Морита, Джеймс Лью, Клемент Сейнт-Джордж, Марко Фьорини, Аарон Ипале, Норман Бёртон, Тадаси Ямасита

    Описание: Искусству восточных рукопашных поединков американец Джо учится у Мастера Тетсу, но однажды Джо и самому приходится стать наставником: он должен временно присматривать за племянником своего учителя, а Хиро — парнишка, помешанный на компьютерах — и знать ничего не хочет ни о каких ниндзя, нунчаках, тэквондо и кикбоксерах.

    Когда Джо и Хиро приняли приглашение юной девушки Лизы вместе пообедать, они не предполагали, что ее скоро похитят злодеи, жаждущие пошантажировать ее отца, известного ученого. И тут появился Джо…

    Доп. информация: Дорожка с Ю. Живовым синхронизирована и наложена ale_x2008 при помощи Adobe Audition, Sony Vegas и VirtualDubMod.

    За оцифрованную с VHS дорожку благодарим - ripak22mee




    [img]http://i83.fastpic.ru/big/2016/1101/9d/0d8252ae63e9d4e9924907bbf53ce99d.png[/img]

    Качество видео: DVDRip
    Формат видео: AVI

    Видео: XviD build 73, 640x480 (1.33:1), 23.976 fps, 1704 kbps avg, 0.23 bit/pixel
    Аудио: AC3 Dolby Digital, 48000Hz 2/0 (L,R) ch (mono), 192.00 kbps avg
    MediaInfo

    Американский ниндзя 5 - American Ninja 5 [by ale_x2008].avi
    Format                      : AVI
    Format/Info                 : Audio Video Interleave
    File size                   : 1.37 GiB
    Duration                    : 1 h 42 min
    Overall bit rate            : 1 906 kb/s
    Movie name                  : Американский ниндзя 5 - American Ninja 5 [by ale_x2008]
    Director                    : by ale_x2008
    Writing application         : VirtualDubMod 1.5.10.2 (build 2540/release)
    Copyright                   : Edich2

    Video
    ID                          : 0
    Format                      : MPEG-4 Visual
    Format profile              : Advanced Simple@L5
    Format settings, BVOP       : 2
    Format settings, QPel       : No
    Format settings, GMC        : No warppoints
    Format settings, Matrix     : Custom
    Codec ID                    : XVID
    Codec ID/Hint               : XviD
    Duration                    : 1 h 42 min
    Bit rate                    : 1 704 kb/s
    Width                       : 640 pixels
    Height                      : 480 pixels
    Display aspect ratio        : 4:3
    Frame rate                  : 23.976 (24000/1001) FPS
    Color space                 : YUV
    Chroma subsampling          : 4:2:0
    Bit depth                   : 8 bits
    Scan type                   : Progressive
    Compression mode            : Lossy
    Bits/(Pixel*Frame)          : 0.231
    Stream size                 : 1.23 GiB (89%)
    Writing library             : XviD 73

    Audio
    ID                          : 1
    Format                      : AC-3
    Format/Info                 : Audio Coding 3
    Format settings, Endianness : Big
    Codec ID                    : 2000
    Duration                    : 1 h 42 min
    Bit rate mode               : Constant
    Bit rate                    : 192 kb/s
    Channel(s)                  : 2 channels
    Channel positions           : Front: L R
    Sampling rate               : 48.0 kHz
    Frame rate                  : 31.250 FPS (1536 spf)
    Bit depth                   : 16 bits
    Compression mode            : Lossy
    Stream size                 : 141 MiB (10%)
    Alignment                   : Split accross interleaves
    Interleave, duration        : 42  ms (1.00 video frame)
    Interleave, preload duratio : 500  ms
    Service kind                : Complete Main

    Свернуть


    Скриншоты

    [screen]http://i5.imageban.ru/out/2018/02/02/9c50b96688049ade24dcb7abb9a38606.png[/screen][screen]http://i2.imageban.ru/out/2018/02/02/961a9a32df154976547b6489099a38f5.png[/screen][screen]http://i6.imageban.ru/out/2018/02/02/11de6ea50d6b88a86d12f1b37823c66c.png[/screen][screen]http://i2.imageban.ru/out/2018/02/02/953de9d8949b1915e6a7eec5051b05aa.png[/screen][screen]http://i6.imageban.ru/out/2018/02/02/72a3c76f0a083c3026591864625bc403.png[/screen][screen]http://i5.imageban.ru/out/2018/02/02/ba9943a9406a4b331f1789567e007492.png[/screen]
    Свернуть
    Инструкция по скачиванию
     1  Качаем uTorrent версии 2.0 и выше
     2  После установки, жмем выше под постером на ссылку Скачать [MediaGet] или Скачать .torrent
     3  Открываем скачанный файл через соответствующий клиент: MediaGet или uTorrent
     4  Ждем пока подключатся участники
     5  Качаем
    Комментарии о  Американский ниндзя 5 / American Ninja 5 | DVDRip 
    Ближайшее в кино
    Вверх