• Игры для PS4
  • Игры для PS3
  • Игры для XBOX360
  • Игры для PC
  • Игры для PS2
  • Игры для PSP
  • Для телефонов
  • Музыка
  • Книги / Журналы
  • Обои
  • Опрос
    Удобен ли сайт в использовании?
      0
    • Очень удобен, все понятно1,1,false,300,full
    • Удобен1,2,false,300,full
    • Средне1,3,false,300,full
    • Неудобен, трудно ориентироваться1,4,false,300,full
    • Совсем неудобен1,5,false,300,full
    Статистика
    Всего онлайн -
    Гостей -
    Пользователей -
    Короли трекера
    
    Благодарности () Закрыть
    Быстрее загружает сайты Экономит интернет—трафик Меняет оформление страницы ВК Блокирует всю рекламу на сайтах Загружает торренты как µTorrent клиент Объеденяет все твои чаты из соц. сетей в один Проигрывает твою музыку не заходя во ВКонтакте
    Новый интернет-браузер
    Оrbitum
    Скачать
    и многое другое... Подробности на сайте производителя
    Информация о фильме
    Название: В оранжевом
    Оригинальное название: In Oranje
    Год выхода: 2004
    Жанр: драма, семейный, спорт
    Режиссер: Йорам Люрсен
    В ролях: Янник ван де Вельде, Томас Акда, Венди Ван Дайк, Питер Блок,  Майке Польдер, Стерре Херстель, Порги Франссен, Тон Кас, Бас Кейзер

    О фильме:
    У 12-летнего Ремко есть мечта: быть выбранным в детскую национальную сборную по футболу. В осуществлении этой мечты ему помогает его папа, заядлый футболист и болельщик. Но случается несчастье и Ремко теряет отца… Сдаться или попробовать осуществить свою мечту? Ведь рядом с тобой твои близкие и друзья, и… отец, память о котором всегда тебя поддержит.

    [img]http://i104.fastpic.ru/big/2018/0505/c4/596ae66f258fea870b13e320b38d15c4.gif[/img]     [img]http://i83.fastpic.ru/big/2016/1001/64/e971ae22580fd7d9031bc5669f213d64.gif[/img]

    Производство: Нидерланды / Motel Films, Fu Works, Algemene Vereniging Radio Omroep (AVRO)
    Продолжительность: 01:34:31
    Перевод: любительский (одноголосый закадровый) [Владислав Данилов]

    Файл
    Качество: DVDRip
    Формат: AVI
    Видео: XviD, 720x400 (16:9), 25.000 fps, 1758 kbps, 0.244 bit/pixel
    Аудио #1: русский, AC3 5.1, 48 kHz, 448 kbps
    Аудио #2: голландский, AC3 5.1, 48 kHz, 448 kbps

    MediaInfo
    Общее
    Полное имя                               : In.Oranje.2004.DVDRip.avi
    Формат                                   : AVI
    Формат/Информация                        : Audio Video Interleave
    Размер файла                             : 1,76 Гбайт
    Продолжительность                        : 1 ч. 34 м.
    Общий поток                              : 2668 Кбит/сек
    Программа кодирования                    : VirtualDubMod 1.5.10.2 (build 2542/release)
    Библиотека кодирования                   : VirtualDubMod build 2542/release

    Видео
    Идентификатор                            : 0
    Формат                                   : MPEG-4 Visual
    Профиль формата                          : Advanced Simple@L5
    Параметр BVOP формата                    : 1
    Параметр QPel формата                    : Нет
    Параметр GMC формата                     : Без точки перехода
    Параметр матрицы формата                 : Default (MPEG)
    Идентификатор кодека                     : XVID
    Идентификатор кодека/Подсказка           : XviD
    Продолжительность                        : 1 ч. 34 м.
    Битрейт                                  : 1758 Кбит/сек
    Ширина                                   : 720 пикселей
    Высота                                   : 400 пикселей
    Соотношение сторон                       : 16:9
    Частота кадров                           : 25,000 кадров/сек
    Цветовое пространство                    : YUV
    Субдискретизация насыщенности            : 4:2:0
    Битовая глубина                          : 8 бит
    Тип развёртки                            : Прогрессивная
    Метод сжатия                             : С потерями
    Бит/(Пиксели*Кадры)                      : 0.244
    Размер потока                            : 1,16 Гбайт (66%)
    Библиотека кодирования                   : XviD 1.2.1 (UTC 2008-12-04)

    Аудио #1
    Идентификатор                            : 1
    Формат                                   : AC-3
    Формат/Информация                        : Audio Coding 3
    Расширение режима                        : CM (complete main)
    Параметр Endianness формата              : Big
    Идентификатор кодека                     : 2000
    Продолжительность                        : 1 ч. 34 м.
    Вид битрейта                             : Постоянный
    Битрейт                                  : 448 Кбит/сек
    Каналы                                   : 6 каналов
    Расположение каналов                     : Front: L C R, Side: L R, LFE
    Частота                                  : 48,0 КГц
    Метод сжатия                             : С потерями
    Размер потока                            : 303 Мбайт (17%)
    Выравнивание                             : Разделение по промежуткам
    Продолжительность промежутка             : 40  мс. (1,00 видеокадр)
    Время предзагрузки промежутка            : 500  мс.

    Аудио #2
    Идентификатор                            : 2
    Формат                                   : AC-3
    Формат/Информация                        : Audio Coding 3
    Расширение режима                        : CM (complete main)
    Параметр Endianness формата              : Big
    Идентификатор кодека                     : 2000
    Продолжительность                        : 1 ч. 34 м.
    Вид битрейта                             : Постоянный
    Битрейт                                  : 448 Кбит/сек
    Каналы                                   : 6 каналов
    Расположение каналов                     : Front: L C R, Side: L R, LFE
    Частота                                  : 48,0 КГц
    Метод сжатия                             : С потерями
    Размер потока                            : 303 Мбайт (17%)
    Выравнивание                             : Разделение по промежуткам
    Продолжительность промежутка             : 40  мс. (1,00 видеокадр)
    Время предзагрузки промежутка            : 500  мс.
    Свернуть


    Скриншоты
    [screen]http://i104.fastpic.ru/big/2018/0706/6f/305cc22e051f62a1c58fc717d4ab7e6f.jpg[/screen][screen]http://i104.fastpic.ru/big/2018/0706/b3/2081eaff5198a35a97c7e6c73ef3a8b3.jpg[/screen][screen]http://i104.fastpic.ru/big/2018/0706/87/23509e0cd3ff90136f6db57c7ef6b587.jpg[/screen][screen]http://i104.fastpic.ru/big/2018/0706/1a/a75be658b4e5af0bff6b92baab25b61a.jpg[/screen][screen]http://i104.fastpic.ru/big/2018/0706/08/a0fb7d3077eedc713cf3679df4378508.jpg[/screen][screen]http://i104.fastpic.ru/big/2018/0706/fd/4fa444c31f11bf7f06d03105769116fd.jpg[/screen][screen]http://i104.fastpic.ru/big/2018/0706/74/d396be9947b4eb23a8aad380fa7e8a74.jpg[/screen][screen]http://i104.fastpic.ru/big/2018/0706/92/5b0cea1e60be1722b0e4311df802be92.jpg[/screen][screen]http://i104.fastpic.ru/big/2018/0706/83/e7fec16dc21db87757691fd11da07b83.jpg[/screen][screen]http://i104.fastpic.ru/big/2018/0706/27/0639a8e214fec47ebe6bd00b52eecd27.jpg[/screen][screen]http://i104.fastpic.ru/big/2018/0706/f8/99994e35f47e4d98608fcdecf17324f8.jpg[/screen][screen]http://i104.fastpic.ru/big/2018/0706/66/bca4590d0170106eb909155b34565366.jpg[/screen][screen]http://i104.fastpic.ru/big/2018/0706/1a/cb2d73f52b00e075074abd433a36f11a.jpg[/screen][screen]http://i104.fastpic.ru/big/2018/0706/f3/52d8ad4eebbf6ea63abe8d3de3a5cef3.jpg[/screen][screen]http://i104.fastpic.ru/big/2018/0706/f6/03cdb105f0dff07f7aed07b5e9a086f6.jpg[/screen][screen]http://i104.fastpic.ru/big/2018/0706/a2/e0f418106d375b8c203f7f43137816a2.jpg[/screen]Свернуть
    Похожие раздачи Искать похожие
    Инструкция по скачиванию
     1  Качаем uTorrent версии 2.0 и выше
     2  После установки, жмем выше под постером на ссылку Скачать [MediaGet] или Скачать .torrent
     3  Открываем скачанный файл через соответствующий клиент: MediaGet или uTorrent
     4  Ждем пока подключатся участники
     5  Качаем
    Комментарии о  В оранжевом / In Oranje | DVDRip 
    Ближайшее в кино
    Вверх