• Игры для PS4
  • Игры для PS3
  • Игры для XBOX360
  • Игры для PC
  • Игры для PS2
  • Игры для PSP
  • Для телефонов
  • Музыка
  • Книги / Журналы
  • Обои
  • Опрос
    Удобен ли сайт в использовании?
      0
    • Очень удобен, все понятно1,1,false,300,full
    • Удобен1,2,false,300,full
    • Средне1,3,false,300,full
    • Неудобен, трудно ориентироваться1,4,false,300,full
    • Совсем неудобен1,5,false,300,full
    Статистика
    Всего онлайн -
    Гостей -
    Пользователей -
    Короли трекера
    
    Благодарности () Закрыть
    Быстрее загружает сайты Экономит интернет—трафик Меняет оформление страницы ВК Блокирует всю рекламу на сайтах Загружает торренты как µTorrent клиент Объеденяет все твои чаты из соц. сетей в один Проигрывает твою музыку не заходя во ВКонтакте
    Новый интернет-браузер
    Оrbitum
    Скачать
    и многое другое... Подробности на сайте производителя
    Название: Первые
    Год выпуска: 2017
    Страна: Россия
    Жанр: драма, приключения, история

    Перевод: Не требуется [Русский] (Line)
    Примечание: Релиз без рекламы
    Продолжительность: 01:36:15

    Режиссер: Дмитрий Суворов
    В ролях: Наиль Абдрахманов (Василий Прончищев), Алина Ланина (Татьяна Прончищева), Евгений Ткачук (Семён Челюскин), Валерий Баринов (Витус Беринг), Данила Якушев (боцман), Сергей Рост (Фарварсон), Сергей Терещенко, Александр Дьяченко (Пётр I), Егор Тимцуник

    Описание:
    Лента расскажет о подвиге и любви супругов Прончищевых - полярных исследователей Арктики в составе Ленско-Енисейского отряда Великой Северной экспедиции.

    Рейтинг:


    Качество: WEB-DLRip
    Формат: AVI
    Видео: XviD, 720x320 (2.25:1), 1803 kbps, 24 fps, 0,326 bpp
    Аудио: AC3 / 2.0 / 48 kHz / 224 kbps /
    Сэмпл

    ОтчетМедиаИнфо

    General
    Complete name                            : F:Pervye.2017.WEB-DLRip.Line.R.G.Resident.avi
    Format                                   : AVI
    Format/Info                              : Audio Video Interleave
    File size                                : 1.37 GiB
    Duration                                 : 1 h 36 min
    Overall bit rate                         : 2 037 kb/s
    Writing application                      : VirtualDubModRus 1.5.10.2 (build 2542/release)
    Writing library                          : VirtualDubMod build 2542/release

    Video
    ID                                       : 0
    Format                                   : MPEG-4 Visual
    Format profile                           : Advanced Simple@L5
    Format settings, BVOP                    : 1
    Format settings, QPel                    : No
    Format settings, GMC                     : No warppoints
    Format settings, Matrix                  : Custom
    Codec ID                                 : XVID
    Codec ID/Hint                            : XviD
    Duration                                 : 1 h 36 min
    Bit rate                                 : 1 804 kb/s
    Width                                    : 720 pixels
    Height                                   : 320 pixels
    Display aspect ratio                     : 2.25:1
    Frame rate                               : 24.000 FPS
    Color space                              : YUV
    Chroma subsampling                       : 4:2:0
    Bit depth                                : 8 bits
    Scan type                                : Progressive
    Compression mode                         : Lossy
    Bits/(Pixel*Frame)                       : 0.326
    Stream size                              : 1.21 GiB (89%)
    Writing library                          : XviD 73

    Audio
    ID                                       : 1
    Format                                   : AC-3
    Format/Info                              : Audio Coding 3
    Mode extension                           : CM (complete main)
    Format settings, Endianness              : Big
    Codec ID                                 : 2000
    Duration                                 : 1 h 36 min
    Bit rate mode                            : Constant
    Bit rate                                 : 224 kb/s
    Channel(s)                               : 2 channels
    Channel positions                        : Front: L R
    Sampling rate                            : 48.0 kHz
    Frame rate                               : 31.250 FPS (1536 spf)
    Compression mode                         : Lossy
    Stream size                              : 154 MiB (11%)
    Alignment                                : Split accross interleaves
    Interleave, duration                     : 42  ms (1.00 video frame)
    Interleave, preload duration             : 500  ms
    Свернуть


    Похожие раздачи Искать похожие
    Инструкция по скачиванию
     1  Качаем uTorrent версии 2.0 и выше
     2  После установки, жмем выше под постером на ссылку Скачать [MediaGet] или Скачать .torrent
     3  Открываем скачанный файл через соответствующий клиент: MediaGet или uTorrent
     4  Ждем пока подключатся участники
     5  Качаем
    Комментарии о  Первые | WEB-DLRip 
    Ближайшее в кино
    Вверх