• Игры для PS4
  • Игры для PS3
  • Игры для XBOX360
  • Игры для PC
  • Игры для PS2
  • Игры для PSP
  • Для телефонов
  • Музыка
  • Книги / Журналы
  • Обои
  • Опрос
    Удобен ли сайт в использовании?
      0
    • Очень удобен, все понятно1,1,false,300,full
    • Удобен1,2,false,300,full
    • Средне1,3,false,300,full
    • Неудобен, трудно ориентироваться1,4,false,300,full
    • Совсем неудобен1,5,false,300,full
    Статистика
    Всего онлайн -
    Гостей -
    Пользователей -
    Короли трекера
    
    Благодарности () Закрыть
    Быстрее загружает сайты Экономит интернет—трафик Меняет оформление страницы ВК Блокирует всю рекламу на сайтах Загружает торренты как µTorrent клиент Объеденяет все твои чаты из соц. сетей в один Проигрывает твою музыку не заходя во ВКонтакте
    Новый интернет-браузер
    Оrbitum
    Скачать
    и многое другое... Подробности на сайте производителя
    Легенды осени / Legends Of The Fall

    Год выхода: 1994
    Страна: США
    Жанр:  Драма, мелодрама, вестерн, военный
    Продолжительность: 02:12:50
    Перевод: Дублированный, профессиональный многоголосый, профессиональный двухголосый, авторский
    Режиссер: Эдвард Цвик
    В ролях: Брэд Питт, Энтони Хопкинс, Эйдан Куинн, Джулия Ормонд, Генри Томас, Карина Ломбард, Гордон Тутусис

    О фильме: «Некоторые люди очень ясно слышат свой внутренний голос, и живут так, как он им подсказывает.
    Такие люди сходят с ума. Или становятся легендами».
    Так начинается история семьи Ладлоу — стремительный и романтический рассказ о трех братьях,
    их отце и молодой и неотразимой женщине, которая роковым образом изменяет жизнь каждого из них.
    С детства трое братьев неразлучны, однако они еще не подозревают, по какой тропе страстей и насилия поведет жизнь каждого из них.
    Сквозь ужасы Первой Мировой, сквозь потерянные годы, последовавшие за войной, через любовь и потери, предательство и надежду.
    И в центре всегда оказывался недосягаемый, непредсказуемый Тристан.



    Кодек: x264
    Качество: BDRip 720p
    Видео: 1278x692, 8000 Kbps, 23.976 fps
    Аудио 1: Русский, AC-3, 48.0 KHz, 6 ch, 640 Кбит/с, DUB | Blu-ray CEE
    Аудио 2: Русский, AC-3, 48.0 KHz, 6 ch, 640 Кбит/с, DVO
    Аудио 3: Русский, AC-3, 48.0 KHz, 6 ch, 640 Кбит/с, MVO
    Аудио 4: Русский, AC-3, 48.0 KHz, 2 ch, 192 Кбит/с, MVO | ОРТ
    Аудио 5: Русский, AC-3, 48.0 KHz, 6 ch, 448 Кбит/с, AVO | М. Яроцкий (Kyberpunk)
    Аудио 6: Русский, AC-3, 48.0 KHz, 6 ch, 640 Кбит/с, AVO | А. Гаврилов
    Аудио 7: Русский, AC-3, 48.0 KHz, 6 ch, 640 Кбит/с, AVO | Ю. Живов
    Аудио 8: Русский, AC-3, 48.0 KHz, 6 ch, 640 Кбит/с, AVO | С. Визгунов
    Аудио 9: Украинский, AC-3, 48.0 KHz, 2 ch, 192 Кбит/с, MVO | IНТЕР
    Аудио 10: Английский, AC-3, 48.0 KHz, 6 ch, 640 Кбит/с
    Субтитры: Русские (4шт), Английские
    Главы: Есть

    Доп

    За звук благодарю mzmaСвернуть


    Инфо файл
      
    x264 [info]: frame I:1414  Avg QP:14.72  size:209400
    x264 [info]: frame P:42418 Avg QP:17.51  size: 87447
    x264 [info]: frame B:147256 Avg QP:19.11  size: 26912

    Общее
    Уникальный идентификатор                 : 252998792013992441522056258605024449665 (0xBE55CB81685E50648E52E870B3929481)
    Полное имя                               : H:коллекцияЛегенды осени 1994_BDRip 720p_KORSAR.mkv
    Формат                                   : Matroska
    Версия формата                           : Version 2
    Размер файла                             : 12,1 Гбайт
    Продолжительность                        : 2 ч. 12 м.
    Общий поток                              : 13,1 Мбит/сек
    Дата кодирования                         : UTC 2018-07-07 10:28:23
    Программа кодирования                    : mkvmerge v5.8.0 ("No Sleep / Pillow") built on Sep  2 2012 15:37:04
    Библиотека кодирования                   : libebml v1.2.3 + libmatroska v1.3.0

    Видео
    Идентификатор                            : 1
    Формат                                   : AVC
    Формат/Информация                        : Advanced Video Codec
    Профиль формата                          : High@L4.1
    Настройки формата                        : CABAC / 9 Ref Frames
    Параметр CABAC формата                   : Да
    Параметр RefFrames формата               : 9 кадров
    Идентификатор кодека                     : V_MPEG4/ISO/AVC
    Продолжительность                        : 2 ч. 12 м.
    Битрейт                                  : 8000 Кбит/сек
    Ширина                                   : 1278 пикселей
    Высота                                   : 692 пикселя
    Соотношение сторон                       : 1,85:1
    Режим частоты кадров                     : Постоянный
    Частота кадров                           : 23,976 (24000/1001) кадра/сек
    Цветовое пространство                    : YUV
    Субдискретизация насыщенности            : 4:2:0
    Битовая глубина                          : 8 бит
    Тип развёртки                            : Прогрессивная
    Бит/(Пиксели*Кадры)                      : 0.377
    Размер потока                            : 7,18 Гбайт (59%)
    Библиотека кодирования                   : x264 core 152 r2851kMod ba24899
    Настройки программы                      : cabac=1 / ref=9 / deblock=1:-2:-2 / analyse=0x3:0x113 / me=umh / subme=11 / psy=1 / fade_compensate=0.00 / psy_rd=1.05:0.10 / mixed_ref=1 / me_range=48 / chroma_me=1 / trellis=2 / 8x8dct=1 / cqm=0 / deadzone=21,11 / fast_pskip=0 / chroma_qp_offset=-3 / threads=12 / lookahead_threads=3 / sliced_threads=0 / nr=0 / decimate=0 / interlaced=0 / bluray_compat=0 / constrained_intra=0 / bframes=12 / b_pyramid=2 / b_adapt=2 / b_bias=0 / direct=3 / weightb=1 / open_gop=0 / weightp=2 / keyint=240 / keyint_min=23 / scenecut=40 / intra_refresh=0 / rc_lookahead=40 / rc=2pass / mbtree=0 / bitrate=8000 / ratetol=1.0 / qcomp=0.60 / qpmin=0 / qpmax=39 / qpstep=4 / cplxblur=20.0 / qblur=0.5 / vbv_maxrate=50000 / vbv_bufsize=62500 / nal_hrd=none / filler=0 / ip_ratio=1.25 / pb_ratio=1.30 / aq=1:1.00
    Язык                                     : English
    Default                                  : Да
    Forced                                   : Нет
    Цветовой диапазон                        : Limited
    Основные цвета                           : BT.709
    Характеристики трансфера                 : BT.709
    Коэффициенты матрицы                     : BT.709

    Аудио #1
    Идентификатор                            : 2
    Формат                                   : AC-3
    Формат/Информация                        : Audio Coding 3
    Параметр Endianness формата              : Big
    Идентификатор кодека                     : A_AC3
    Продолжительность                        : 2 ч. 12 м.
    Вид битрейта                             : Постоянный
    Битрейт                                  : 640 Кбит/сек
    Каналы                                   : 6 каналов
    Расположение каналов                     : Front: L C R, Side: L R, LFE
    Частота                                  : 48,0 КГц
    Частота кадров                           : 31,250 кадров/сек (1536 SPF)
    Битовая глубина                          : 16 бит
    Метод сжатия                             : С потерями
    Размер потока                            : 608 Мбайт (5%)
    Заголовок                                : DUB | Blu-ray CEE
    Язык                                     : Russian
    Default                                  : Да
    Forced                                   : Нет

    Аудио #2
    Идентификатор                            : 3
    Формат                                   : AC-3
    Формат/Информация                        : Audio Coding 3
    Параметр Endianness формата              : Big
    Идентификатор кодека                     : A_AC3
    Продолжительность                        : 2 ч. 12 м.
    Вид битрейта                             : Постоянный
    Битрейт                                  : 640 Кбит/сек
    Каналы                                   : 6 каналов
    Расположение каналов                     : Front: L C R, Side: L R, LFE
    Частота                                  : 48,0 КГц
    Частота кадров                           : 31,250 кадров/сек (1536 SPF)
    Битовая глубина                          : 16 бит
    Метод сжатия                             : С потерями
    Размер потока                            : 608 Мбайт (5%)
    Заголовок                                : DVO
    Язык                                     : Russian
    Default                                  : Нет
    Forced                                   : Нет

    Аудио #3
    Идентификатор                            : 4
    Формат                                   : AC-3
    Формат/Информация                        : Audio Coding 3
    Параметр Endianness формата              : Big
    Идентификатор кодека                     : A_AC3
    Продолжительность                        : 2 ч. 12 м.
    Вид битрейта                             : Постоянный
    Битрейт                                  : 384 Кбит/сек
    Каналы                                   : 6 каналов
    Расположение каналов                     : Front: L C R, Side: L R, LFE
    Частота                                  : 48,0 КГц
    Частота кадров                           : 31,250 кадров/сек (1536 SPF)
    Битовая глубина                          : 16 бит
    Метод сжатия                             : С потерями
    Размер потока                            : 365 Мбайт (3%)
    Заголовок                                : MVO
    Язык                                     : Russian
    Default                                  : Нет
    Forced                                   : Нет

    Аудио #4
    Идентификатор                            : 5
    Формат                                   : AC-3
    Формат/Информация                        : Audio Coding 3
    Параметр Endianness формата              : Big
    Идентификатор кодека                     : A_AC3
    Продолжительность                        : 2 ч. 12 м.
    Вид битрейта                             : Постоянный
    Битрейт                                  : 192 Кбит/сек
    Каналы                                   : 2 канала
    Расположение каналов                     : Front: L R
    Частота                                  : 48,0 КГц
    Частота кадров                           : 31,250 кадров/сек (1536 SPF)
    Битовая глубина                          : 16 бит
    Метод сжатия                             : С потерями
    Размер потока                            : 182 Мбайт (1%)
    Заголовок                                : MVO | ОРТ
    Язык                                     : Russian
    Default                                  : Нет
    Forced                                   : Нет

    Аудио #5
    Идентификатор                            : 6
    Формат                                   : AC-3
    Формат/Информация                        : Audio Coding 3
    Параметр Endianness формата              : Big
    Идентификатор кодека                     : A_AC3
    Продолжительность                        : 2 ч. 12 м.
    Вид битрейта                             : Постоянный
    Битрейт                                  : 448 Кбит/сек
    Каналы                                   : 6 каналов
    Расположение каналов                     : Front: L C R, Side: L R, LFE
    Частота                                  : 48,0 КГц
    Частота кадров                           : 31,250 кадров/сек (1536 SPF)
    Битовая глубина                          : 16 бит
    Метод сжатия                             : С потерями
    Размер потока                            : 426 Мбайт (3%)
    Заголовок                                : AVO | М. Яроцкий (Kyberpunk)
    Язык                                     : Russian
    Default                                  : Нет
    Forced                                   : Нет

    Аудио #6
    Идентификатор                            : 7
    Формат                                   : AC-3
    Формат/Информация                        : Audio Coding 3
    Параметр Endianness формата              : Big
    Идентификатор кодека                     : A_AC3
    Продолжительность                        : 2 ч. 12 м.
    Вид битрейта                             : Постоянный
    Битрейт                                  : 640 Кбит/сек
    Каналы                                   : 6 каналов
    Расположение каналов                     : Front: L C R, Side: L R, LFE
    Частота                                  : 48,0 КГц
    Частота кадров                           : 31,250 кадров/сек (1536 SPF)
    Битовая глубина                          : 16 бит
    Метод сжатия                             : С потерями
    Размер потока                            : 608 Мбайт (5%)
    Заголовок                                : AVO | А. Гаврилов
    Язык                                     : Russian
    Default                                  : Нет
    Forced                                   : Нет

    Аудио #7
    Идентификатор                            : 8
    Формат                                   : AC-3
    Формат/Информация                        : Audio Coding 3
    Параметр Endianness формата              : Big
    Идентификатор кодека                     : A_AC3
    Продолжительность                        : 2 ч. 12 м.
    Вид битрейта                             : Постоянный
    Битрейт                                  : 640 Кбит/сек
    Каналы                                   : 6 каналов
    Расположение каналов                     : Front: L C R, Side: L R, LFE
    Частота                                  : 48,0 КГц
    Частота кадров                           : 31,250 кадров/сек (1536 SPF)
    Битовая глубина                          : 16 бит
    Метод сжатия                             : С потерями
    Размер потока                            : 608 Мбайт (5%)
    Заголовок                                : AVO | Ю. Живов
    Язык                                     : Russian
    Default                                  : Нет
    Forced                                   : Нет

    Аудио #8
    Идентификатор                            : 9
    Формат                                   : AC-3
    Формат/Информация                        : Audio Coding 3
    Параметр Endianness формата              : Big
    Идентификатор кодека                     : A_AC3
    Продолжительность                        : 2 ч. 12 м.
    Вид битрейта                             : Постоянный
    Битрейт                                  : 640 Кбит/сек
    Каналы                                   : 6 каналов
    Расположение каналов                     : Front: L C R, Side: L R, LFE
    Частота                                  : 48,0 КГц
    Частота кадров                           : 31,250 кадров/сек (1536 SPF)
    Битовая глубина                          : 16 бит
    Метод сжатия                             : С потерями
    Размер потока                            : 608 Мбайт (5%)
    Заголовок                                : AVO | С. Визгунов
    Язык                                     : Russian
    Default                                  : Нет
    Forced                                   : Нет

    Аудио #9
    Идентификатор                            : 10
    Формат                                   : AC-3
    Формат/Информация                        : Audio Coding 3
    Параметр Endianness формата              : Big
    Идентификатор кодека                     : A_AC3
    Продолжительность                        : 2 ч. 12 м.
    Вид битрейта                             : Постоянный
    Битрейт                                  : 192 Кбит/сек
    Каналы                                   : 2 канала
    Расположение каналов                     : Front: L R
    Частота                                  : 48,0 КГц
    Частота кадров                           : 31,250 кадров/сек (1536 SPF)
    Битовая глубина                          : 16 бит
    Метод сжатия                             : С потерями
    Размер потока                            : 182 Мбайт (1%)
    Заголовок                                : MVO | IНТЕР
    Язык                                     : Ukrainian
    Default                                  : Нет
    Forced                                   : Нет

    Аудио #10
    Идентификатор                            : 11
    Формат                                   : AC-3
    Формат/Информация                        : Audio Coding 3
    Параметр Endianness формата              : Big
    Идентификатор кодека                     : A_AC3
    Продолжительность                        : 2 ч. 12 м.
    Вид битрейта                             : Постоянный
    Битрейт                                  : 640 Кбит/сек
    Каналы                                   : 6 каналов
    Расположение каналов                     : Front: L C R, Side: L R, LFE
    Частота                                  : 48,0 КГц
    Частота кадров                           : 31,250 кадров/сек (1536 SPF)
    Битовая глубина                          : 16 бит
    Метод сжатия                             : С потерями
    Размер потока                            : 608 Мбайт (5%)
    Заголовок                                : Original
    Язык                                     : English
    Default                                  : Нет
    Forced                                   : Нет

    Текст #1
    Идентификатор                            : 12
    Формат                                   : UTF-8
    Идентификатор кодека                     : S_TEXT/UTF8
    Идентификатор кодека/Информация          : UTF-8 Plain Text
    Заголовок                                : BD
    Язык                                     : Russian
    Default                                  : Нет
    Forced                                   : Нет

    Текст #2
    Идентификатор                            : 13
    Формат                                   : UTF-8
    Идентификатор кодека                     : S_TEXT/UTF8
    Идентификатор кодека/Информация          : UTF-8 Plain Text
    Заголовок                                : for DVO
    Язык                                     : Russian
    Default                                  : Нет
    Forced                                   : Нет

    Текст #3
    Идентификатор                            : 14
    Формат                                   : UTF-8
    Идентификатор кодека                     : S_TEXT/UTF8
    Идентификатор кодека/Информация          : UTF-8 Plain Text
    Язык                                     : Russian
    Default                                  : Нет
    Forced                                   : Нет

    Текст #4
    Идентификатор                            : 15
    Формат                                   : UTF-8
    Идентификатор кодека                     : S_TEXT/UTF8
    Идентификатор кодека/Информация          : UTF-8 Plain Text
    Язык                                     : Russian
    Default                                  : Нет
    Forced                                   : Нет

    Текст #5
    Идентификатор                            : 16
    Формат                                   : UTF-8
    Идентификатор кодека                     : S_TEXT/UTF8
    Идентификатор кодека/Информация          : UTF-8 Plain Text
    Язык                                     : English
    Default                                  : Нет
    Forced                                   : Нет

    Меню
    00:00:00.000                             : en:Start
    00:02:07.500                             : en:Ludlow Family History
    00:08:00.834                             : en:Susannah
    00:13:08.501                             : en:Isabel Two
    00:14:59.568                             : en:Dinner & Entertainment
    00:21:48.569                             : en:O"Bannions & Sheriff Tynert
    00:25:24.236                             : en:Tristan & Susannah
    00:34:03.539                             : en:"The Horror"s Indescribable"
    00:39:49.074                             : en:Looking for Samuel
    00:44:59.708                             : en:The Indian Way
    00:50:00.008                             : en:"I"m in love with you"
    00:52:30.909                             : en:Tristan Returns
    00:56:43.909                             : en:Passion Consummated
    00:59:26.409                             : en:Alfred Leaves
    01:05:53.744                             : en:Four Beers
    01:07:30.578                             : en:The Bear"s Voice
    01:09:05.279                             : en:"I"ll Wait Forever"
    01:11:59.147                             : en:Letter For Herself
    01:17:27.816                             : en:Defending Tristan
    01:21:58.849                             : en:Tristan Comes Home
    01:30:22.417                             : en:All Grown Up
    01:32:19.252                             : en:The Oddest News
    01:37:13.187                             : en:Bootlegger"s Meeting
    01:38:17.822                             : en:Family Reunion
    01:41:52.690                             : en:"Stay Out Of Our Way"
    01:47:12.957                             : en:Prison Visitor
    01:53:41.125                             : en:Revenge & Suicide
    02:00:20.526                             : en:Not Here To Arrest Him

    Свернуть


    Скриншоты

    [screen]https://img11.lostpic.net/2018/07/06/232fc813fd3cb08f70180fe661f21ac1.png[/screen][screen]https://img11.lostpic.net/2018/07/06/351146e819276862fe5f6d1f82a3d16c.png[/screen][screen]https://img11.lostpic.net/2018/07/06/542e72e04ca5c48432f12d2162845332.png[/screen][screen]https://img11.lostpic.net/2018/07/06/2187fd780fc17fe5d0518f2bfdb49b98.png[/screen][screen]https://img11.lostpic.net/2018/07/06/fd1e168bb530737525037cf1f7bdd963.png[/screen][screen]https://img11.lostpic.net/2018/07/06/2c783d9d78bae986819ca2d8065e4cf1.png[/screen]   Свернуть


    [img]http://s018.radikal.ru/i516/1710/ce/3eb1e0641821.gif[/img] [img]http://korsar.tv/images/VKontakte.gif[/img]
    Похожие раздачи Искать похожие
    Инструкция по скачиванию
     1  Качаем uTorrent версии 2.0 и выше
     2  После установки, жмем выше под постером на ссылку Скачать [MediaGet] или Скачать .torrent
     3  Открываем скачанный файл через соответствующий клиент: MediaGet или uTorrent
     4  Ждем пока подключатся участники
     5  Качаем
    Комментарии о  Легенды осени / Legends Of The Fall | BDRip 720p 
    Ближайшее в кино
    Вверх