• Игры для PS4
  • Игры для PS3
  • Игры для XBOX360
  • Игры для PC
  • Игры для PS2
  • Игры для PSP
  • Для телефонов
  • Музыка
  • Книги / Журналы
  • Обои
  • Опрос
    Удобен ли сайт в использовании?
      0
    • Очень удобен, все понятно1,1,false,300,full
    • Удобен1,2,false,300,full
    • Средне1,3,false,300,full
    • Неудобен, трудно ориентироваться1,4,false,300,full
    • Совсем неудобен1,5,false,300,full
    Статистика
    Всего онлайн -
    Гостей -
    Пользователей -
    Короли трекера
    
    Благодарности () Закрыть
    Быстрее загружает сайты Экономит интернет—трафик Меняет оформление страницы ВК Блокирует всю рекламу на сайтах Загружает торренты как µTorrent клиент Объеденяет все твои чаты из соц. сетей в один Проигрывает твою музыку не заходя во ВКонтакте
    Новый интернет-браузер
    Orbitum
    Скачать
    и многое другое... Подробности на сайте производителя
    Ноль градусов Кельвина / Выродки любви / Kjærlighetens kjøtere / Zero Kelvin

    Страна: Норвегия, Швеция
    Жанр:  Драма
    Год выпуска: 1995
    Продолжительность: 01:52:17
    Перевод: Одноголосый закадровый Андрей Григорьев (The LEXX)
    Режиссер: Ганс Петтер Моланд /Hans Petter Moland
    В ролях: Стеллан Скарсгард, Гард Б. Эйдсвольд, Бьорн Сундквист, Камилла Мартенс, Пол-Оттар Хага, Йоханнес Йонер, Эрик Экснес, Ларс Андреас Ларссен, Юни Дар, Йохан Рабеус

    Описание: Действие фильма происходит в мрачной обстановке: лачуга в Гренландии, где трое человек, нанятых охотниками на тюленей, очень быстро сходят с ума.
    Ларсен, честолюбивый поэт, оставляет свою подругу, чтобы провести целый год звероловом в Восточной Гренландии. Ему придётся работать вместе со "старым", грубым моряком и охотником Ранбеком и учёным Хольмом. Отрезанные от мира, им предстоит вместе пережить всю долгую арктическую зиму в небольшой хибаре. Между Ранбеком и Ларсеном, которые более похожи, чем хотели бы признаться в этом сами себе, завязываются сложные и напряжённые отношения.
    Мощная психологическая и физическая драма на фоне потрясающе мрачного арктического пейзажа.

    [img]http://www.kinopoisk.ru/rating/20116.gif[/img]

    Кодек: х264
    Качество: DVDRip-AVC
    Видео: MPEG-4 AVC, 712х432@759x432, 25 fps, 2600 Кбит/с
    Аудио 1: АС3, 2 сh, 192 Кбит/с
    Аудио 2: АС3, 2 сh, 384 Кбит/с
    Субтитры: Русские
    Главы: Есть

    Инфо файл

    x264 [info]: frame I:989   Avg QP:17.31  size: 73400
    x264 [info]: frame P:37332 Avg QP:19.62  size: 31437
    x264 [info]: frame B:130104 Avg QP:21.18  size:  7251

    Общее
    Уникальный идентификатор                 : 226337347477309734988660589093684051440 (0xAA46FCCD0F748A2AA8924A149138FDF0)
    Полное имя                               : H:коллекцияНоль градусов Кельвина 1995_DVDRip-AVC_KORSAR.mkv
    Формат                                   : Matroska
    Версия формата                           : Version 2
    Размер файла                             : 2,49 Гбайт
    Продолжительность                        : 1 ч. 52 м.
    Общий поток                              : 3178 Кбит/сек
    Название фильма                          : mister.hats
    Дата кодирования                         : UTC 2018-07-07 04:22:24
    Программа кодирования                    : mkvmerge v5.8.0 ("No Sleep / Pillow") built on Sep  2 2012 15:37:04
    Библиотека кодирования                   : libebml v1.2.3 + libmatroska v1.3.0

    Видео
    Идентификатор                            : 1
    Формат                                   : AVC
    Формат/Информация                        : Advanced Video Codec
    Профиль формата                          : High@L4.1
    Настройки формата                        : CABAC / 14 Ref Frames
    Параметр CABAC формата                   : Да
    Параметр RefFrames формата               : 14 кадров
    Идентификатор кодека                     : V_MPEG4/ISO/AVC
    Продолжительность                        : 1 ч. 52 м.
    Битрейт                                  : 2600 Кбит/сек
    Ширина                                   : 712 пикселей
    Высота                                   : 432 пикселя
    Соотношение сторон                       : 16:9
    Соотношение сторон в оригинале           : 16:9
    Режим частоты кадров                     : Постоянный
    Частота кадров                           : 25,000 кадров/сек
    Цветовое пространство                    : YUV
    Субдискретизация насыщенности            : 4:2:0
    Битовая глубина                          : 8 бит
    Тип развёртки                            : Прогрессивная
    Бит/(Пиксели*Кадры)                      : 0.338
    Размер потока                            : 1,99 Гбайт (80%)
    Библиотека кодирования                   : x264 core 152 r2851kMod ba24899
    Настройки программы                      : cabac=1 / ref=14 / deblock=1:-2:-2 / analyse=0x3:0x133 / me=umh / subme=11 / psy=1 / fade_compensate=0.00 / psy_rd=1.05:0.12 / mixed_ref=1 / me_range=48 / chroma_me=1 / trellis=2 / 8x8dct=1 / cqm=0 / deadzone=21,11 / fast_pskip=0 / chroma_qp_offset=-3 / threads=12 / lookahead_threads=3 / sliced_threads=0 / nr=0 / decimate=0 / interlaced=0 / bluray_compat=0 / constrained_intra=0 / bframes=10 / b_pyramid=2 / b_adapt=2 / b_bias=0 / direct=3 / weightb=1 / open_gop=0 / weightp=2 / keyint=250 / keyint_min=25 / scenecut=40 / intra_refresh=0 / rc_lookahead=40 / rc=2pass / mbtree=0 / bitrate=2600 / ratetol=1.0 / qcomp=0.60 / qpmin=0 / qpmax=39 / qpstep=4 / cplxblur=20.0 / qblur=0.5 / vbv_maxrate=50000 / vbv_bufsize=62500 / nal_hrd=none / filler=0 / ip_ratio=1.25 / pb_ratio=1.30 / aq=1:1.00
    Язык                                     : English
    Default                                  : Да
    Forced                                   : Нет
    Цветовой диапазон                        : Limited
    Основные цвета                           : BT.601 PAL
    Характеристики трансфера                 : BT.470 System B, BT.470 System G
    Коэффициенты матрицы                     : BT.470 System B, BT.470 System G

    Аудио #1
    Идентификатор                            : 2
    Формат                                   : AC-3
    Формат/Информация                        : Audio Coding 3
    Параметр Endianness формата              : Big
    Идентификатор кодека                     : A_AC3
    Продолжительность                        : 1 ч. 52 м.
    Вид битрейта                             : Постоянный
    Битрейт                                  : 192 Кбит/сек
    Каналы                                   : 2 канала
    Расположение каналов                     : Front: L R
    Частота                                  : 48,0 КГц
    Частота кадров                           : 31,250 кадров/сек (1536 SPF)
    Битовая глубина                          : 16 бит
    Метод сжатия                             : С потерями
    Размер потока                            : 154 Мбайт (6%)
    Заголовок                                : Андрей Григорьев
    Язык                                     : Russian
    Default                                  : Да
    Forced                                   : Нет

    Аудио #2
    Идентификатор                            : 3
    Формат                                   : AC-3
    Формат/Информация                        : Audio Coding 3
    Параметр Endianness формата              : Big
    Идентификатор кодека                     : A_AC3
    Продолжительность                        : 1 ч. 52 м.
    Вид битрейта                             : Постоянный
    Битрейт                                  : 384 Кбит/сек
    Каналы                                   : 2 канала
    Расположение каналов                     : Front: L R
    Частота                                  : 48,0 КГц
    Частота кадров                           : 31,250 кадров/сек (1536 SPF)
    Битовая глубина                          : 16 бит
    Метод сжатия                             : С потерями
    Размер потока                            : 308 Мбайт (12%)
    Язык                                     : Norwegian
    Default                                  : Нет
    Forced                                   : Нет

    Текст
    Идентификатор                            : 4
    Формат                                   : UTF-8
    Идентификатор кодека                     : S_TEXT/UTF8
    Идентификатор кодека/Информация          : UTF-8 Plain Text
    Язык                                     : Russian
    Default                                  : Нет
    Forced                                   : Нет

    Меню
    00:00:00.000                             : en:Chapter 1
    00:09:15.120                             : en:Chapter 2
    00:19:32.360                             : en:Chapter 3
    00:28:27.320                             : en:Chapter 4
    00:39:01.680                             : en:Chapter 5
    00:51:40.360                             : en:Chapter 6
    00:58:26.880                             : en:Chapter 7
    01:06:51.280                             : en:Chapter 8
    01:16:08.600                             : en:Chapter 9
    01:26:47.280                             : en:Chapter 10
    01:36:17.360                             : en:Chapter 11
    01:49:53.000                             : en:Chapter 12
    01:52:16.560                             : en:Chapter 13

    Свернуть


    Скриншоты
      
    [screen]https://img11.lostpic.net/2018/07/07/955f6b11e36ad43c32091d045c806496.png[/screen][screen]https://img11.lostpic.net/2018/07/07/eee95aed60e2fc635cb09f5c2d5d483b.png[/screen][screen]https://img11.lostpic.net/2018/07/07/7cabcae8c39a53cd746b32c8b63cfbdd.png[/screen][screen]https://img11.lostpic.net/2018/07/07/871c934b08f6df03949aa9297b897578.png[/screen][screen]https://img11.lostpic.net/2018/07/07/a2e02837f1b117ff57b15da5e708680a.png[/screen][screen]https://img11.lostpic.net/2018/07/07/99b2d3dd34c48e05d6a3e7d04eac6dbd.png[/screen]   Свернуть


    [img]http://s018.radikal.ru/i516/1710/ce/3eb1e0641821.gif[/img] [img]http://korsar.tv/images/VKontakte.gif[/img]
    Похожие раздачи Искать похожие
    Инструкция по скачиванию
     1  Качаем uTorrent версии 2.0 и выше
     2  После установки, жмем выше под постером на ссылку Скачать [MediaGet] или Скачать .torrent
     3  Открываем скачанный файл через соответствующий клиент: MediaGet или uTorrent
     4  Ждем пока подключатся участники
     5  Качаем
    Комментарии о  Ноль градусов Кельвина / Выродки любви / Kjærlighetens kjøtere / Zero Kelvin | DVDRip-AVC 
    Ближайшее в кино
    Вверх